×

¿Problemas para descargar con Mozilla, EDGE? Deshabilita la opción "Abrir vinculos en una pestaña nueva" tal como lo muestra ésta imagen.

Madame Web (2024) AMZN WEB-DL 1080p Latino

54 vistas

Información de Madame Web (2024) AMZN WEB-DL 1080p Latino

Datos de la película

  • Calidad: WEBDL
  • Audio: Español Latino AC3 5.1 WEB-DL - Ingles AC3 5.1 WEB-DL
  • Subtitulos: Español Latino SRT- FORZADOS SRT
  • Resolución: 1920x800p
  • Formato: MKV
  • Codec: H.264
  • Encoder: Melkor
  • Mediainfo: Clic para Mostrar Datos Ver
  • Madame Web (2024) AMZN WEB 1080p Latino.mkv
    Format                      : Matroska
    Format version              : Version 4
    File size                   : 7.61 GiB
    Duration                    : 1 h 57 min
    Overall bit rate            : 9 242 kb/s
    Movie name                  : Madame Web (2024) CinemaniaHDD.Net
    Encoded date                : UTC 2024-03-15 06:10:30
    Writing application         : mkvmerge v56.1.0 ('My Friend') 64-bit
    Writing library             : libebml v1.4.2 + libmatroska v1.6.4
    Attachments                 : CINEMANIAHD.png
    Site                        : CinemaniaHDD.Net
    Uploader                    : Melkor

    Video
    ID                          : 1
    Format                      : AVC
    Format/Info                 : Advanced Video Codec
    Format profile              : High@L4
    Format settings             : CABAC / 4 Ref Frames
    Format settings, CABAC      : Yes
    Format settings, Reference  : 4 frames
    Codec ID                    : V_MPEG4/ISO/AVC
    Duration                    : 1 h 57 min
    Bit rate mode               : Constant
    Bit rate                    : 8 104 kb/s
    Nominal bit rate            : 10 000 kb/s
    Width                       : 1 920 pixels
    Height                      : 800 pixels
    Display aspect ratio        : 2.40:1
    Frame rate mode             : Constant
    Frame rate                  : 23.976 (24000/1001) FPS
    Color space                 : YUV
    Chroma subsampling          : 4:2:0
    Bit depth                   : 8 bits
    Scan type                   : Progressive
    Bits/(Pixel*Frame)          : 0.220
    Stream size                 : 6.67 GiB (88%)
    Title                       : Web HD1080p [CinemaniaHDD]
    Language                    : English
    Default                     : Yes
    Forced                      : Yes
    Color range                 : Limited
    Color primaries             : BT.709
    Transfer characteristics    : BT.709
    Matrix coefficients         : BT.709

    Audio #1
    ID                          : 2
    Format                      : AC-3
    Format/Info                 : Audio Coding 3
    Commercial name             : Dolby Digital
    Codec ID                    : A_AC3
    Duration                    : 1 h 56 min
    Bit rate mode               : Constant
    Bit rate                    : 384 kb/s
    Channel(s)                  : 6 channels
    Channel layout              : L R C LFE Ls Rs
    Sampling rate               : 48.0 kHz
    Frame rate                  : 31.250 FPS (1536 SPF)
    Compression mode            : Lossy
    Stream size                 : 319 MiB (4%)
    Title                       : Español Latino [CinemaniaHDD]
    Language                    : Spanish
    Service kind                : Complete Main
    Default                     : Yes
    Forced                      : Yes

    Audio #2
    ID                          : 3
    Format                      : E-AC-3 JOC
    Format/Info                 : Enhanced AC-3 with Joint Object Coding
    Commercial name             : Dolby Digital Plus with Dolby Atmos
    Codec ID                    : A_EAC3
    Duration                    : 1 h 56 min
    Bit rate mode               : Constant
    Bit rate                    : 768 kb/s
    Channel(s)                  : 6 channels
    Channel layout              : L R C LFE Ls Rs
    Sampling rate               : 48.0 kHz
    Frame rate                  : 31.250 FPS (1536 SPF)
    Compression mode            : Lossy
    Delay relative to video     : 22 ms
    Stream size                 : 638 MiB (8%)
    Title                       : Ingles [CinemaniaHDD]
    Language                    : English
    Service kind                : Complete Main
    Default                     : No
    Forced                      : No
    Complexity index            : 16
    Number of dynamic objects   : 15
    Bed channel count           : 1 channel
    Bed channel configuration   : LFE

    Text #1
    ID                          : 4
    Format                      : UTF-8
    Codec ID                    : S_TEXT/UTF8
    Codec ID/Info               : UTF-8 Plain Text
    Duration                    : 1 h 54 min
    Bit rate                    : 0 b/s
    Count of elements           : 14
    Stream size                 : 609 Bytes (0%)
    Title                       : Forzados-SRT [CinemaniaHDD]
    Language                    : Spanish
    Default                     : Yes
    Forced                      : Yes

    Text #2
    ID                          : 5
    Format                      : UTF-8
    Codec ID                    : S_TEXT/UTF8
    Codec ID/Info               : UTF-8 Plain Text
    Duration                    : 1 h 54 min
    Bit rate                    : 48 b/s
    Count of elements           : 1491
    Stream size                 : 40.7 KiB (0%)
    Title                       : Español-SRT [CinemaniaHDD]
    Language                    : Spanish
    Default                     : No
    Forced                      : No

    Text #3
    ID                          : 6
    Format                      : UTF-8
    Codec ID                    : S_TEXT/UTF8
    Codec ID/Info               : UTF-8 Plain Text
    Duration                    : 1 h 47 min
    Bit rate                    : 68 b/s
    Count of elements           : 1922
    Stream size                 : 54.1 KiB (0%)
    Title                       : Ingles-SRT [CinemaniaHDD]
    Language                    : English
    Default                     : No
    Forced                      : No

    Menu
    00:00:00.000                : Chapter 01
    00:07:55.684                : Chapter 02
    00:15:51.659                : Chapter 03
    00:22:54.249                : Chapter 04
    00:27:42.620                : Chapter 05
    00:36:52.962                : Chapter 06
    00:44:36.176                : Chapter 07
    00:52:22.475                : Chapter 08
    01:00:17.575                : Chapter 09
    01:07:17.370                : Chapter 10
    01:17:02.747                : Chapter 11
    01:20:05.513                : Chapter 12
    01:28:01.740                : Chapter 13
    01:35:39.114                : Chapter 14
    01:46:37.605                : Chapter 15
    01:48:51.072                : Chapter 16

  • Peso: 7.61 GiB

Sinopsis

Descargar Madame Web (2024) AMZN WEB-DL 1080p Latino. Una historia de origen de la clarividente conocida como Madame Web, cuyas habilidades psíquicas le permiten ver dentro del mundo de las arañas.

Ficha técnica

Video trailer de la película

Enlaces de descarga

Rip de Bluray

Descargar Madame Web (2024) AMZN WEB-DL 1080p Latino




Aportes de DPeliculasHDmega la pass es:dpeliculashdmega.org Aportes de CinemaniaHD la pass es:cinemaniahdd.com Aportes recientes:cinemaniahdd.net
Guardado en : Acción , Fantasía

Películas relacionadas

descargar Madame Web (2024) AMZN WEB-DL 1080p Latino WEBDL 1080p gratis, Madame Web (2024) AMZN WEB-DL 1080p Latino WEBDL mega 1 link, Madame Web (2024) AMZN WEB-DL 1080p Latino WEBDL pelicula completa, descargar Madame Web (2024) AMZN WEB-DL 1080p Latino WEBDL gratis en mega.

Madame Web (2024) AMZN WEB-DL 1080p Latino pelicula full hd, Madame Web (2024) AMZN WEB-DL 1080p Latino mega latino, Madame Web (2024) AMZN WEB-DL 1080p Latino 4k latino, Madame Web (2024) AMZN WEB-DL 1080p Latino pelicula completa, Madame Web (2024) AMZN WEB-DL 1080p Latino descargar gratis, descargar Madame Web (2024) AMZN WEB-DL 1080p Latino pelicula latino, Madame Web (2024) AMZN WEB-DL 1080p Latino 1 link mega, Madame Web (2024) AMZN WEB-DL 1080p Latino 1 link google drive, Madame Web (2024) AMZN WEB-DL 1080p Latino hd 1080p latino.
Comentarios 0