Madagascar 2 Escape de África (2008) Full 1080p Latino

429 vistas
1 estrella2 estrellas3 estrellas4 estrellas5 estrellas (2 votos, promedio: 5,00 de 5)
Cargando…

Información de Madagascar 2 Escape de África (2008) Full 1080p Latino

Datos de la película

  • Calidad: Full 1080p
  • Audio: Español Latino AC3 5.1 BLURAY - Ingles AC3 5.1 BLURAY
  • Subtitulos: Español Latino SRT
  • Resolución: 1920x1080p
  • Formato: MKV
  • Codec: H.264
  • Encoder: Dracarys
  • Mediainfo: Clic para Mostrar Datos Ver
  • Format                      : Matroska
    Format version              : Version 4
    File size                   : 4.22 GiB
    Duration                    : 1 h 29 min
    Overall bit rate            : 6 755 kb/s
    Movie name                  : CinemaniaHDD.net
    Encoded date                : UTC 2019-02-07 20:21:28
    Writing application         : mkvmerge v30.1.0 ('Forever And More') 64-bit
    Writing library             : libebml v1.3.6 + libmatroska v1.4.9 / Lavf58.20.100

    Video
    ID                          : 1
    Format                      : AVC
    Format/Info                 : Advanced Video Codec
    Format profile              : [email protected]
    Format settings             : CABAC / 4 Ref Frames
    Format settings, CABAC      : Yes
    Format settings, ReFrames   : 4 frames
    Codec ID                    : V_MPEG4/ISO/AVC
    Duration                    : 1 h 29 min
    Bit rate                    : 5 461 kb/s
    Width                       : 1 920 pixels
    Height                      : 1 080 pixels
    Display aspect ratio        : 16:9
    Frame rate mode             : Constant
    Frame rate                  : 23.976 (24000/1001) FPS
    Color space                 : YUV
    Chroma subsampling          : 4:2:0
    Bit depth                   : 8 bits
    Scan type                   : Progressive
    Bits/(Pixel*Frame)          : 0.110
    Stream size                 : 3.41 GiB (81%)
    Writing library             : x264 core 157 r2935 545de2f
    Encoding settings           : cabac=1 / ref=4 / deblock=1:0:0 / analyse=0x1:0x131 / me=tesa / subme=11 / psy=1 / psy_rd=1.00:0.00 / mixed_ref=1 / me_range=24 / chroma_me=1 / trellis=2 / 8x8dct=0 / cqm=0 / deadzone=21,11 / fast_pskip=0 / chroma_qp_offset=-2 / threads=34 / lookahead_threads=8 / sliced_threads=0 / nr=0 / decimate=1 / interlaced=0 / bluray_compat=0 / constrained_intra=0 / bframes=16 / b_pyramid=2 / b_adapt=2 / b_bias=0 / direct=3 / weightb=1 / open_gop=0 / weightp=2 / keyint=240 / keyint_min=24 / scenecut=40 / intra_refresh=0 / rc_lookahead=60 / rc=crf / mbtree=1 / crf=20.0 / qcomp=0.60 / qpmin=0 / qpmax=69 / qpstep=4 / vbv_maxrate=20000 / vbv_bufsize=25000 / crf_max=0.0 / nal_hrd=none / filler=0 / ip_ratio=1.40 / aq=1:1.00
    Language                    : English
    Default                     : Yes
    Forced                      : No
    Color range                 : Limited
    Color primaries             : BT.709
    Transfer characteristics    : BT.709
    Matrix coefficients         : BT.709

    Audio #1
    ID                          : 2
    Format                      : AC-3
    Format/Info                 : Audio Coding 3
    Commercial name             : Dolby Digital
    Codec ID                    : A_AC3
    Duration                    : 1 h 29 min
    Bit rate mode               : Constant
    Bit rate                    : 640 kb/s
    Channel(s)                  : 6 channels
    Channel layout              : L R C LFE Ls Rs
    Sampling rate               : 48.0 kHz
    Frame rate                  : 31.250 FPS (1536 SPF)
    Bit depth                   : 16 bits
    Compression mode            : Lossy
    Stream size                 : 409 MiB (9%)
    Language                    : Spanish
    Service kind                : Complete Main
    Default                     : Yes
    Forced                      : No

    Audio #2
    ID                          : 3
    Format                      : AC-3
    Format/Info                 : Audio Coding 3
    Commercial name             : Dolby Digital
    Codec ID                    : A_AC3
    Duration                    : 1 h 29 min
    Bit rate mode               : Constant
    Bit rate                    : 640 kb/s
    Channel(s)                  : 6 channels
    Channel layout              : L R C LFE Ls Rs
    Sampling rate               : 48.0 kHz
    Frame rate                  : 31.250 FPS (1536 SPF)
    Bit depth                   : 16 bits
    Compression mode            : Lossy
    Stream size                 : 409 MiB (9%)
    Language                    : English
    Service kind                : Complete Main
    Default                     : No
    Forced                      : No

    Text #1
    ID                          : 4
    Format                      : UTF-8
    Codec ID                    : S_TEXT/UTF8
    Codec ID/Info               : UTF-8 Plain Text
    Duration                    : 1 h 19 min
    Bit rate                    : 0 b/s
    Count of elements           : 6
    Stream size                 : 144 Bytes (0%)
    Title                       : Forzados
    Language                    : Spanish
    Default                     : Yes
    Forced                      : Yes

    Text #2
    ID                          : 5
    Format                      : UTF-8
    Codec ID                    : S_TEXT/UTF8
    Codec ID/Info               : UTF-8 Plain Text
    Duration                    : 1 h 21 min
    Bit rate                    : 66 b/s
    Count of elements           : 1236
    Stream size                 : 39.9 KiB (0%)
    Language                    : Spanish
    Default                     : No
    Forced                      : No

    Text #3
    ID                          : 6
    Format                      : PGS
    Muxing mode                 : zlib
    Codec ID                    : S_HDMV/PGS
    Codec ID/Info               : Picture based subtitle format used on BDs/HD-DVDs
    Duration                    : 1 h 28 min
    Bit rate                    : 37.6 kb/s
    Count of elements           : 2472
    Stream size                 : 23.9 MiB (1%)
    Language                    : Spanish
    Default                     : No
    Forced                      : No

    Menu
    00:00:00.000                : :Chapter 1
    00:04:15.881                : :Chapter 2
    00:06:46.615                : :Chapter 3
    00:09:25.774                : :Chapter 4
    00:15:51.951                : :Chapter 5
    00:17:34.762                : :Chapter 6
    00:20:26.934                : :Chapter 7
    00:23:57.353                : :Chapter 8
    00:28:03.557                : :Chapter 9
    00:30:58.899                : :Chapter 10
    00:33:52.906                : :Chapter 11
    00:35:19.909                : :Chapter 12
    00:38:15.418                : :Chapter 13
    00:42:59.911                : :Chapter 14
    00:45:35.942                : :Chapter 15
    00:49:22.918                : :Chapter 16
    00:52:17.259                : :Chapter 17
    00:55:17.773                : :Chapter 18
    00:57:59.810                : :Chapter 19
    01:03:28.638                : :Chapter 20
    01:06:33.948                : :Chapter 21
    01:15:17.888                : :Chapter 22
    01:19:48.075                : :Chapter 23

     

  • Peso: 4.22 GiB

Sinopsis

Alex, Marty, Melman, Gloria, el rey Julien, Maurice, los pingüinos y los chimpancés se encuentran abandonados en las remotas playas de Madagascar. Para superar este obstáculo, los neoyorquinos han ideado un plan tan loco que puede que funcione. Con precisión militar, los pingüinos han reparado (bueno, casi) un viejo aeroplano accidentado. Una vez que despega el primer vuelo de la compañía Aerolíneas Pingüino, la insólita tripulación consigue permanecer en vuelo el tiempo suficiente como para llegar al lugar más salvaje de todos: las inmensas llanuras africanas, en donde los miembros de nuestro grupo de animales criados en el zoo de Nueva York se encontrarán por primera vez con miembros de su especie. África parece un sitio genial, pero… ¿es mejor que su hogar en Central Park?

Ficha técnica

Video trailer de la película

Enlaces de descarga

Rip de Bluray

Descargar Madagascar 2 Escape de África (2008) Full 1080p Latino




Aportes de DPeliculasHDmega la pass es:dpeliculashdmega.org Aportes de CinemaniaHD la pass es:cinemaniahdd.com

Películas relacionadas

  • Yucatán (2018) NF WEB-DL 1080p Castellano

    2018
    Yucatán (2018) NF WEB-DL 1080p Castellano

    0.0 2h 10m 2018

    Lucas (Luis Tosar) y Clayderman (Rodrigo de la Serna) son dos estafadores que se dedican a timar a turistas...

    Director: Daniel Monzón

    Género: Castellano

    Actores: Xavier Lite

  • El Vacio (2018) Temporada 1 NF 1080p Latino

    2018
    El Vacio (2018) Temporada 1 NF 1080p Latino

    0.0 0h 25m 2018

    Tres adolescentes despiertan en un reino extraño lleno de portales mágicos, enigmas desconcertantes...

    Director: Vito Viscomi

    Género: Animación

    Actores: Mark Hildreth

  • El príncipe dragón (2019) Temporada 2 NF 1080p Latino

    2018
    El príncipe dragón (2019) Temporada 2 NF 1080p Latino

    0.0 0h 27m 2018

    Antes de marchar hacia Xadia, Callum le pide a Lujanne una lección de magia y Ezran trata de enseñarle...

    Director: Justin Richmond

    Género: Action & Adventure

    Actores: Sasha Rojen

Comentarios 0