Mad Max: furia en el camino (2015) 4K HDR Latino

2.396 vistas
1 estrella2 estrellas3 estrellas4 estrellas5 estrellas (3 votos, promedio: 2,67 de 5)
Cargando…

Información de Mad Max: furia en el camino (2015) 4K HDR Latino

Datos de la película

  • Calidad: 4K HDR
  • Audio: Español Latino AC3 5.1 BLURAY - Ingles AC3 5.1 BLURAY
  • Subtitulos: Español Latino PGS - Ingles PGS
  • Resolución: 3840x1600p
  • Formato: MKV
  • Codec: H.265
  • Encoder: Dracarys
  • Mediainfo: Clic para Mostrar Datos Ver
  • Format                                   : Matroska
    Format version                           : Version 4 / Version 2
    File size                                : 14.0 GiB
    Duration                                 : 2 h 0 min
    Overall bit rate                         : 16.7 Mb/s
    Movie name                               : CinemaniaHDD.com
    Encoded date                             : UTC 2018-02-25 03:24:34
    Writing application                      : mkvmerge v15.0.0 ('Duel with the Devil') 64-bit
    Writing library                          : libebml v1.3.5 + libmatroska v1.4.5

    Video
    ID                                       : 1
    Format                                   : HEVC
    Format/Info                              : High Efficiency Video Coding
    Format profile                           : Main 10@L5@Main
    Codec ID                                 : V_MPEGH/ISO/HEVC
    Duration                                 : 2 h 0 min
    Bit rate                                 : 15.6 Mb/s
    Width                                    : 3 840 pixels
    Height                                   : 1 600 pixels
    Display aspect ratio                     : 2.40:1
    Frame rate mode                          : Constant
    Frame rate                               : 23.976 (24000/1001) FPS
    Original frame rate                      : 23.976 (23976/1000) FPS
    Color space                              : YUV
    Chroma subsampling                       : 4:2:0
    Bit depth                                : 10 bits
    Bits/(Pixel*Frame)                       : 0.106
    Stream size                              : 13.1 GiB (93%)
    Title                                    : Mad Max furia en el camino (2015) 4K HDR Latino
    Writing library                          : x265 1.9:[Linux][GCC 4.6.2][64 bit] 10bit
    Encoding settings                        : wpp / ctu=64 / min-cu-size=8 / max-tu-size=32 / tu-intra-depth=3 / tu-inter-depth=3 / me=3 / subme=4 / merange=57 / rect / amp / max-merge=4 / temporal-mvp / no-early-skip / rdpenalty=0 / no-tskip / no-tskip-fast / strong-intra-smoothing / no-lossless / no-cu-lossless / no-constrained-intra / no-fast-intra / no-open-gop / no-temporal-layers / interlace=0 / keyint=250 / min-keyint=23 / scenecut=0 / rc-lookahead=40 / lookahead-slices=0 / bframes=8 / bframe-bias=0 / b-adapt=2 / ref=3 / limit-refs=1 / limit-modes / weightp / weightb / aq-mode=1 / qg-size=32 / aq-strength=1.00 / cbqpoffs=0 / crqpoffs=0 / rd=6 / psy-rd=2.00 / rdoq-level=2 / psy-rdoq=1.00 / signhide / deblock / sao / no-sao-non-deblock / b-pyramid / cutree / no-intra-refresh / rc=2 / pass / bitrate=16000 / qcomp=0.60 / qpmin=0 / qpmax=51 / qpstep=4 / cplxblur=20.0 / qblur=0.5 / ipratio=1.40 / pbratio=1.30
    Language                                 : English
    Default                                  : Yes
    Forced                                   : No
    Color range                              : Limited
    Color primaries                          : BT.2020
    Transfer characteristics                 : PQ
    Matrix coefficients                      : BT.2020 non-constant

    Audio #1
    ID                                       : 2
    Format                                   : AC-3
    Format/Info                              : Audio Coding 3
    Format settings, Endianness              : Big
    Codec ID                                 : A_AC3
    Duration                                 : 2 h 0 min
    Bit rate mode                            : Constant
    Bit rate                                 : 448 kb/s
    Channel(s)                               : 6 channels
    Channel positions                        : Front: L C R, Side: L R, LFE
    Sampling rate                            : 48.0 kHz
    Frame rate                               : 31.250 FPS (1536 SPF)
    Bit depth                                : 16 bits
    Compression mode                         : Lossy
    Stream size                              : 386 MiB (3%)
    Title                                    : Latino
    Language                                 : Spanish
    Service kind                             : Complete Main
    Default                                  : Yes
    Forced                                   : No

    Audio #2
    ID                                       : 3
    Format                                   : AC-3
    Format/Info                              : Audio Coding 3
    Format settings, Endianness              : Big
    Codec ID                                 : A_AC3
    Duration                                 : 2 h 0 min
    Bit rate mode                            : Constant
    Bit rate                                 : 640 kb/s
    Channel(s)                               : 6 channels
    Channel positions                        : Front: L C R, Side: L R, LFE
    Sampling rate                            : 48.0 kHz
    Frame rate                               : 31.250 FPS (1536 SPF)
    Bit depth                                : 16 bits
    Compression mode                         : Lossy
    Stream size                              : 551 MiB (4%)
    Title                                    : English
    Language                                 : English
    Service kind                             : Complete Main
    Default                                  : No
    Forced                                   : No

    Text #1
    ID                                       : 4
    Format                                   : UTF-8
    Codec ID                                 : S_TEXT/UTF8
    Codec ID/Info                            : UTF-8 Plain Text
    Duration                                 : 2 s 2 ms
    Bit rate                                 : 95 b/s
    Count of elements                        : 1
    Stream size                              : 24.0 Bytes (0%)
    Title                                    : Latino Forzados
    Language                                 : Spanish
    Default                                  : Yes
    Forced                                   : No

    Text #2
    ID                                       : 5
    Format                                   : UTF-8
    Codec ID                                 : S_TEXT/UTF8
    Codec ID/Info                            : UTF-8 Plain Text
    Duration                                 : 1 h 59 min
    Bit rate                                 : 24 b/s
    Count of elements                        : 870
    Stream size                              : 21.7 KiB (0%)
    Title                                    : Latino
    Language                                 : Spanish
    Default                                  : No
    Forced                                   : No

    Text #3
    ID                                       : 6
    Format                                   : UTF-8
    Codec ID                                 : S_TEXT/UTF8
    Codec ID/Info                            : UTF-8 Plain Text
    Duration                                 : 2 h 0 min
    Bit rate                                 : 28 b/s
    Count of elements                        : 1167
    Stream size                              : 24.6 KiB (0%)
    Title                                    : English
    Language                                 : English
    Default                                  : No
    Forced                                   : No

    Text #4
    ID                                       : 7
    Format                                   : PGS
    Muxing mode                              : zlib
    Codec ID                                 : S_HDMV/PGS
    Codec ID/Info                            : Picture based subtitle format used on BDs/HD-DVDs
    Duration                                 : 1 h 41 min
    Bit rate                                 : 81 b/s
    Count of elements                        : 6
    Stream size                              : 60.3 KiB (0%)
    Title                                    : Forzados
    Language                                 : Spanish
    Default                                  : No
    Forced                                   : No

    Text #5
    ID                                       : 8
    Format                                   : PGS
    Muxing mode                              : zlib
    Codec ID                                 : S_HDMV/PGS
    Codec ID/Info                            : Picture based subtitle format used on BDs/HD-DVDs
    Duration                                 : 1 h 59 min
    Bit rate                                 : 14.2 kb/s
    Count of elements                        : 1740
    Stream size                              : 12.2 MiB (0%)
    Title                                    : Español
    Language                                 : Spanish
    Default                                  : No
    Forced                                   : No

    Text #6
    ID                                       : 9
    Format                                   : PGS
    Muxing mode                              : zlib
    Codec ID                                 : S_HDMV/PGS
    Codec ID/Info                            : Picture based subtitle format used on BDs/HD-DVDs
    Duration                                 : 2 h 0 min
    Bit rate                                 : 17.6 kb/s
    Count of elements                        : 2334
    Stream size                              : 15.1 MiB (0%)
    Language                                 : English
    Default                                  : No
    Forced                                   : No

    Menu
    00:00:00.000                             : :Chapter 01
    00:05:00.000                             : :Chapter 02
    00:10:00.000                             : :Chapter 03
    00:15:00.000                             : :Chapter 04
    00:20:00.000                             : :Chapter 05
    00:25:00.000                             : :Chapter 06
    00:30:00.000                             : :Chapter 07
    00:35:00.000                             : :Chapter 08
    00:40:00.000                             : :Chapter 09
    00:45:00.000                             : :Chapter 10
    00:50:00.000                             : :Chapter 11
    00:55:00.000                             : :Chapter 12
    01:00:00.000                             : :Chapter 13
    01:05:00.000                             : :Chapter 14
    01:10:00.000                             : :Chapter 15
    01:15:00.000                             : :Chapter 16
    01:20:00.000                             : :Chapter 17
    01:25:00.000                             : :Chapter 18
    01:30:00.000                             : :Chapter 19
    01:35:00.000                             : :Chapter 20
    01:40:00.000                             : :Chapter 21
    01:45:00.000                             : :Chapter 22
    01:50:00.000                             : :Chapter 23
    01:55:00.000                             : :Chapter 24
    02:00:00.000                             : :Chapter 25

  • Peso: 14.0 GiB

Sinopsis

Perseguido por su turbulento pasado, Mad Max cree que la mejor forma de sobrevivir es ir solo por el mundo. Sin embargo, se ve arrastrado a formar parte de un grupo que huye a través del desierto en un War Rig conducido por una Emperatriz de élite: Furiosa. Escapan de una Ciudadela tiranizada por Immortan Joe, a quien han arrebatado algo irreemplazable. Enfurecido, el Señor de la Guerra moviliza a todas sus bandas y persigue implacablemente a los rebeldes en una “guerra de la carretera” de altas revoluciones… Cuarta entrega de la saga post-apocalíptica que resucita la trilogía que a principios de los ochenta protagonizó Mel Gibson.

Ficha técnica

Video trailer de la película

Enlaces de descarga

Rip de Bluray

Descargar Mad Max: furia en el camino (2015) 4K HDR Latino




Aportes de DPeliculasHDmega la pass es:dpeliculashdmega.org Aportes de CinemaniaHD la pass es:cinemaniahdd.com

Películas relacionadas

  • Cam (2018) NF 1080p Latino

    2018
    Cam (2018) NF 1080p Latino

    0.0 1h 34m 2018

    Alice es una camgirl con un código inamovible, que le permite mantener una cierta distancia con los...

    Director: Rachel Penner

    Género: Suspense

    Actores: Samantha Robinson

  • El Justiciero 2 (2018) Full 1080p Latino

    2018
    El Justiciero 2 (2018) Full 1080p Latino

    5.0 2h 0m 2018

    Descargar El Justiciero 2 (2018) Full 1080p Latino, Mega, Google Drive. Robert McCall (Denzel Washington)...

    Director: Donald Sparks

    Género: Acción

    Actores: Wesley Pereira

Comentarios 0