×

¿Problemas para descargar con Mozilla, EDGE? Deshabilita la opción "Abrir vinculos en una pestaña nueva" tal como lo muestra ésta imagen.

Mad Max 2 The Road Warrior (1981) REMUX 4K HDR Latino – CMHDD

276 vistas

Información de Mad Max 2 The Road Warrior (1981) REMUX 4K HDR Latino – CMHDD

Datos de la película

  • Calidad: 4K HDR
  • Audio: Español Latino AC3 2.0 BLURAY - Ingles DTS 5.1 BLURAY
  • Subtitulos: Español Latino PGS
  • Resolución: 3840x2160p
  • Formato: MKV
  • Codec: H.264
  • Encoder: Dracarys
  • Mediainfo: Clic para Mostrar Datos Ver
  • Format                      : Matroska
    Format version              : Version 4
    File size                   : 43.8 GiB
    Duration                    : 1 h 35 min
    Overall bit rate mode       : Variable
    Overall bit rate            : 65.6 Mb/s
    Movie name                  : Mad Max 2: The Road Warrior (1981) REMUX 4K HDR Latino - CMHDD
    Encoded date                : UTC 2022-04-19 01:32:16
    Writing application         : mkvmerge v17.0.0 ('Be Ur Friend') 64-bit
    Writing library             : libebml v1.3.5 + libmatroska v1.4.8

    Video
    ID                          : 1
    Format                      : HEVC
    Format/Info                 : High Efficiency Video Coding
    Format profile              : Main 10@L5.1@High
    HDR format                  : SMPTE ST 2086, HDR10 compatible
    Codec ID                    : V_MPEGH/ISO/HEVC
    Duration                    : 1 h 35 min
    Bit rate                    : 59.6 Mb/s
    Width                       : 3 840 pixels
    Height                      : 2 160 pixels
    Display aspect ratio        : 16:9
    Frame rate mode             : Constant
    Frame rate                  : 23.976 (24000/1001) FPS
    Color space                 : YUV
    Chroma subsampling          : 4:2:0 (Type 2)
    Bit depth                   : 10 bits
    Bits/(Pixel*Frame)          : 0.299
    Stream size                 : 39.7 GiB (91%)
    Default                     : Yes
    Forced                      : No
    Color range                 : Limited
    Color primaries             : BT.2020
    Transfer characteristics    : PQ
    Matrix coefficients         : BT.2020 non-constant
    Mastering display color pri : Display P3
    Mastering display luminance : min: 0.0001 cd/m2, max: 1000 cd/m2
    Maximum Content Light Level : 940 cd/m2
    Maximum Frame-Average Light : 169 cd/m2

    Audio #1
    ID                          : 2
    Format                      : MLP FBA 16-ch
    Format/Info                 : Meridian Lossless Packing FBA with 16-channel presentation
    Commercial name             : Dolby TrueHD with Dolby Atmos
    Codec ID                    : A_TRUEHD
    Duration                    : 1 h 35 min
    Bit rate mode               : Variable
    Bit rate                    : 3 097 kb/s
    Maximum bit rate            : 5 514 kb/s
    Channel(s)                  : 8 channels
    Channel layout              : L R C LFE Ls Rs Lb Rb
    Sampling rate               : 48.0 kHz
    Frame rate                  : 1 200.000 FPS (40 SPF)
    Compression mode            : Lossless
    Stream size                 : 2.07 GiB (5%)
    Language                    : English
    Default                     : No
    Forced                      : No
    Number of dynamic objects   : 11
    Bed channel count           : 1 channel
    Bed channel configuration   : LFE

    Audio #2
    ID                          : 3
    Format                      : AC-3
    Format/Info                 : Audio Coding 3
    Commercial name             : Dolby Digital
    Format settings             : Dolby Surround EX
    Codec ID                    : A_AC3
    Duration                    : 1 h 35 min
    Bit rate mode               : Constant
    Bit rate                    : 448 kb/s
    Channel(s)                  : 6 channels
    Channel layout              : L R C LFE Ls Rs
    Sampling rate               : 48.0 kHz
    Frame rate                  : 31.250 FPS (1536 SPF)
    Compression mode            : Lossy
    Stream size                 : 306 MiB (1%)
    Language                    : English
    Service kind                : Complete Main
    Default                     : No
    Forced                      : No

    Audio #3
    ID                          : 4
    Format                      : DTS XLL
    Format/Info                 : Digital Theater Systems
    Commercial name             : DTS-HD Master Audio
    Codec ID                    : A_DTS
    Duration                    : 1 h 35 min
    Bit rate mode               : Variable
    Bit rate                    : 2 278 kb/s
    Channel(s)                  : 6 channels
    Channel layout              : C L R Ls Rs LFE
    Sampling rate               : 48.0 kHz
    Frame rate                  : 93.750 FPS (512 SPF)
    Bit depth                   : 16 bits
    Compression mode            : Lossless
    Stream size                 : 1.52 GiB (3%)
    Language                    : English
    Default                     : No
    Forced                      : No

    Audio #4
    ID                          : 5
    Format                      : AC-3
    Format/Info                 : Audio Coding 3
    Commercial name             : Dolby Digital
    Codec ID                    : A_AC3
    Duration                    : 1 h 35 min
    Bit rate mode               : Constant
    Bit rate                    : 192 kb/s
    Channel(s)                  : 2 channels
    Channel layout              : L R
    Sampling rate               : 48.0 kHz
    Frame rate                  : 31.250 FPS (1536 SPF)
    Compression mode            : Lossy
    Delay relative to video     : 23 ms
    Stream size                 : 131 MiB (0%)
    Language                    : Spanish
    Service kind                : Complete Main
    Default                     : Yes
    Forced                      : No

    Text
    ID                          : 6
    Format                      : PGS
    Muxing mode                 : zlib
    Codec ID                    : S_HDMV/PGS
    Codec ID/Info               : Picture based subtitle format used on BDs/HD-DVDs
    Duration                    : 1 h 30 min
    Bit rate                    : 13.8 kb/s
    Count of elements           : 1014
    Stream size                 : 8.98 MiB (0%)
    Language                    : Spanish
    Default                     : No
    Forced                      : No

    Menu
    00:00:00.000                : en:Chapter 1
    00:09:48.754                : en:Chapter 2
    00:19:05.561                : en:Chapter 3
    00:29:05.952                : en:Chapter 4
    00:39:41.420                : en:Chapter 5
    00:49:21.458                : en:Chapter 6
    00:59:40.702                : en:Chapter 7
    01:11:38.919                : en:Chapter 8
    01:23:35.385                : en:Chapter 9
    01:32:29.377                : en:Chapter 10

  • Peso: 43.8 GiB

Sinopsis

Tras el holocausto nuclear, la gasolina se ha convertido en un bien escaso y muy codiciado. Mad Max, héroe solitario, inicia una lucha sin cuartel para ayudar a una colonia de supervivientes constantemente atacada por un grupo de violentos guerreros que intenta arrebatarle un tanque de gasolina. Max decide ayudar a los defensores del tanque utilizando un enorme camión como trampa. La banda de guerreros persigue al camión, pensando que transporta miles de litros de gasolina.

Ficha técnica

Video trailer de la película

Enlaces de descarga

Rip de Bluray

Descargar Mad Max 2 The Road Warrior (1981) REMUX 4K HDR Latino – CMHDD


Aportes de DPeliculasHDmega la pass es:dpeliculashdmega.org Aportes de CinemaniaHD la pass es:cinemaniahdd.com

Películas relacionadas

descargar Mad Max 2 The Road Warrior (1981) REMUX 4K HDR Latino – CMHDD 4K HDR 1080p gratis, Mad Max 2 The Road Warrior (1981) REMUX 4K HDR Latino – CMHDD 4K HDR mega 1 link, Mad Max 2 The Road Warrior (1981) REMUX 4K HDR Latino – CMHDD 4K HDR pelicula completa, descargar Mad Max 2 The Road Warrior (1981) REMUX 4K HDR Latino – CMHDD 4K HDR gratis en mega.

Mad Max 2 The Road Warrior (1981) REMUX 4K HDR Latino – CMHDD pelicula full hd, Mad Max 2 The Road Warrior (1981) REMUX 4K HDR Latino – CMHDD mega latino, Mad Max 2 The Road Warrior (1981) REMUX 4K HDR Latino – CMHDD 4k latino, Mad Max 2 The Road Warrior (1981) REMUX 4K HDR Latino – CMHDD pelicula completa, Mad Max 2 The Road Warrior (1981) REMUX 4K HDR Latino – CMHDD descargar gratis, descargar Mad Max 2 The Road Warrior (1981) REMUX 4K HDR Latino – CMHDD pelicula latino, Mad Max 2 The Road Warrior (1981) REMUX 4K HDR Latino – CMHDD 1 link mega, Mad Max 2 The Road Warrior (1981) REMUX 4K HDR Latino – CMHDD 1 link google drive, Mad Max 2 The Road Warrior (1981) REMUX 4K HDR Latino – CMHDD hd 1080p latino.
Comentarios 0