×

¿Problemas para descargar con Mozilla, EDGE? Deshabilita la opción "Abrir vinculos en una pestaña nueva" tal como lo muestra ésta imagen.

Mad Max (1979) REMUX 4K HDR Latino – CMHDD

332 vistas

Información de Mad Max (1979) REMUX 4K HDR Latino – CMHDD

Datos de la película

  • Calidad: 4K HDR
  • Audio: Español Latino AC3 1.0 BLURAY - Ingles DTS 5.1 BLURAY
  • Subtitulos: Español Latino PGS
  • Resolución: 3840x2160p
  • Formato: MKV
  • Codec: H.264
  • Encoder: Dracarys
  • Mediainfo: Clic para Mostrar Datos Ver
  • Format                      : Matroska
    Format version              : Version 4
    File size                   : 52.2 GiB
    Duration                    : 1 h 33 min
    Overall bit rate mode       : Variable
    Overall bit rate            : 80.2 Mb/s
    Movie name                  : Mad Max (1979) REMUX 4K HDR Latino - CMHDD
    Encoded date                : UTC 2022-04-14 02:44:31
    Writing application         : mkvmerge v17.0.0 ('Be Ur Friend') 64-bit
    Writing library             : libebml v1.3.5 + libmatroska v1.4.8

    Video
    ID                          : 1
    Format                      : HEVC
    Format/Info                 : High Efficiency Video Coding
    Format profile              : Main 10@L5.1@High
    HDR format                  : SMPTE ST 2086, HDR10 compatible
    Codec ID                    : V_MPEGH/ISO/HEVC
    Duration                    : 1 h 33 min
    Bit rate                    : 76.0 Mb/s
    Width                       : 3 840 pixels
    Height                      : 2 160 pixels
    Display aspect ratio        : 16:9
    Frame rate mode             : Constant
    Frame rate                  : 23.976 (24000/1001) FPS
    Color space                 : YUV
    Chroma subsampling          : 4:2:0 (Type 2)
    Bit depth                   : 10 bits
    Bits/(Pixel*Frame)          : 0.382
    Stream size                 : 49.5 GiB (95%)
    Default                     : Yes
    Forced                      : No
    Color range                 : Limited
    Color primaries             : BT.2020
    Transfer characteristics    : PQ
    Matrix coefficients         : BT.2020 non-constant
    Mastering display color pri : Display P3
    Mastering display luminance : min: 0.0050 cd/m2, max: 4000 cd/m2
    Maximum Content Light Level : 3963 cd/m2
    Maximum Frame-Average Light : 168 cd/m2

    Audio #1
    ID                          : 2
    Format                      : DTS XLL
    Format/Info                 : Digital Theater Systems
    Commercial name             : DTS-HD Master Audio
    Codec ID                    : A_DTS
    Duration                    : 1 h 33 min
    Bit rate mode               : Variable
    Bit rate                    : 3 998 kb/s
    Channel(s)                  : 6 channels
    Channel layout              : C L R Ls Rs LFE
    Sampling rate               : 48.0 kHz
    Frame rate                  : 93.750 FPS (512 SPF)
    Bit depth                   : 24 bits
    Compression mode            : Lossless
    Stream size                 : 2.60 GiB (5%)
    Language                    : English
    Default                     : No
    Forced                      : No

    Audio #2
    ID                          : 3
    Format                      : AC-3
    Format/Info                 : Audio Coding 3
    Commercial name             : Dolby Digital
    Codec ID                    : A_AC3
    Duration                    : 1 h 33 min
    Bit rate mode               : Constant
    Bit rate                    : 192 kb/s
    Channel(s)                  : 1 channel
    Channel layout              : C
    Sampling rate               : 48.0 kHz
    Frame rate                  : 31.250 FPS (1536 SPF)
    Compression mode            : Lossy
    Delay relative to video     : 23 ms
    Stream size                 : 128 MiB (0%)
    Language                    : Spanish
    Service kind                : Complete Main
    Default                     : Yes
    Forced                      : No

    Text
    ID                          : 4
    Format                      : PGS
    Muxing mode                 : zlib
    Codec ID                    : S_HDMV/PGS
    Codec ID/Info               : Picture based subtitle format used on BDs/HD-DVDs
    Duration                    : 1 h 29 min
    Bit rate                    : 21.0 kb/s
    Count of elements           : 1382
    Stream size                 : 13.4 MiB (0%)
    Language                    : Spanish
    Default                     : No
    Forced                      : No

    Menu
    00:00:00.000                : en:Chapter 1
    00:12:20.072                : en:Chapter 2
    00:23:31.326                : en:Chapter 3
    00:33:37.056                : en:Chapter 4
    00:43:37.364                : en:Chapter 5
    00:53:02.012                : en:Chapter 6
    01:02:03.469                : en:Chapter 7
    01:11:48.804                : en:Chapter 8
    01:21:04.401                : en:Chapter 9
    01:30:42.270                : en:Chapter 10

  • Peso: 52.2 GiB

Sinopsis

En las autopistas desiertas de una Australia desconocida, tiene lugar una guerra sin merced entre motoristas forajidos y policías Interceptor, que intentan triunfar sobre la gentuza al volante de coches con motores trucados. En un mundo en plena decadencia, la moral se difuminará en el escenario post apocalíptico donde lo único que tiene valor es el bien más preciado: la gasolina. La depravación, crueldad y salvajismo reinan en las bandas que no dudarán en perseguir y acabar con cualquiera que se ponga entre ellos y su ansia destruir y ser los amos de la carretera. Max se cruzará en su camino y lo que empieza como un acto de justicia no tardará en tornarse una lucha personal para acabar con ellos.

Ficha técnica

Video trailer de la película

Enlaces de descarga

Rip de Bluray

Descargar Mad Max (1979) REMUX 4K HDR Latino – CMHDD


Aportes de DPeliculasHDmega la pass es:dpeliculashdmega.org Aportes de CinemaniaHD la pass es:cinemaniahdd.com

Películas relacionadas

descargar Mad Max (1979) REMUX 4K HDR Latino – CMHDD 4K HDR 1080p gratis, Mad Max (1979) REMUX 4K HDR Latino – CMHDD 4K HDR mega 1 link, Mad Max (1979) REMUX 4K HDR Latino – CMHDD 4K HDR pelicula completa, descargar Mad Max (1979) REMUX 4K HDR Latino – CMHDD 4K HDR gratis en mega.

Mad Max (1979) REMUX 4K HDR Latino – CMHDD pelicula full hd, Mad Max (1979) REMUX 4K HDR Latino – CMHDD mega latino, Mad Max (1979) REMUX 4K HDR Latino – CMHDD 4k latino, Mad Max (1979) REMUX 4K HDR Latino – CMHDD pelicula completa, Mad Max (1979) REMUX 4K HDR Latino – CMHDD descargar gratis, descargar Mad Max (1979) REMUX 4K HDR Latino – CMHDD pelicula latino, Mad Max (1979) REMUX 4K HDR Latino – CMHDD 1 link mega, Mad Max (1979) REMUX 4K HDR Latino – CMHDD 1 link google drive, Mad Max (1979) REMUX 4K HDR Latino – CMHDD hd 1080p latino.
Comentarios 0