×

¿Problemas para descargar con Mozilla, EDGE? Deshabilita la opción "Abrir vinculos en una pestaña nueva" tal como lo muestra ésta imagen.

M3GAN (2023) AMZN WEB-DL 4K UHD HDR Latino

42 vistas

Información de M3GAN (2023) AMZN WEB-DL 4K UHD HDR Latino

Datos de la película

  • Calidad: WEBDL
  • Audio: Español Latino AC3 5.1 WEB-DL - Ingles AC3 5.1 WEB-DL
  • Subtitulos: Español Latino SRT- FORZADOS SRT
  • Resolución: 3840x1600p
  • Formato: MKV
  • Codec: HEVC
  • Encoder: Melkor
  • Mediainfo: Clic para Mostrar Datos Ver
  • M3GAN (2023) AMZN WEB UHD HDR Latino.mkv Format                      : Matroska Format version              : Version 4 File size                   : 11.2 GiB Duration                    : 1 h 42 min Overall bit rate            : 15.7 Mb/s Movie name                  : M3GAN (2023) CinemaniaHDD.Net Encoded date                : UTC 2023-01-24 18:39:20 Writing application         : mkvmerge v56.1.0 ('My Friend') 64-bit Writing library             : libebml v1.4.2 + libmatroska v1.6.4 Attachments                 : CINEMANIAHD.png Video ID                          : 1 Format                      : HEVC Format/Info                 : High Efficiency Video Coding Format profile              : Main 10@L5@Main HDR format                  : SMPTE ST 2094 App 4, Version 1, HDR10+ Profile B compatible Codec ID                    : V_MPEGH/ISO/HEVC Duration                    : 1 h 42 min Bit rate                    : 14.7 Mb/s Width                       : 3 840 pixels Height                      : 1 600 pixels Display aspect ratio        : 2.40:1 Frame rate mode             : Constant Frame rate                  : 23.976 (24000/1001) FPS Color space                 : YUV Chroma subsampling          : 4:2:0 Bit depth                   : 10 bits Bits/(Pixel*Frame)          : 0.100 Stream size                 : 10.5 GiB (93%) Title                       : Web 2160p HDR [CinemaniaHDD] Language                    : English Default                     : Yes Forced                      : No Color range                 : Limited Color primaries             : BT.2020 Transfer characteristics    : PQ Matrix coefficients         : BT.2020 non-constant Mastering display color pri : Display P3 Mastering display luminance : min: 0.0010 cd/m2, max: 1000 cd/m2 Maximum Content Light Level : 563 cd/m2 Maximum Frame-Average Light : 395 cd/m2 Audio #1 ID                          : 2 Format                      : AC-3 Format/Info                 : Audio Coding 3 Commercial name             : Dolby Digital Codec ID                    : A_AC3 Duration                    : 1 h 41 min Bit rate mode               : Constant Bit rate                    : 384 kb/s Channel(s)                  : 6 channels Channel layout              : L R C LFE Ls Rs Sampling rate               : 48.0 kHz Frame rate                  : 31.250 FPS (1536 SPF) Compression mode            : Lossy Stream size                 : 280 MiB (2%) Title                       : Español Latino [CinemaniaHDD] Language                    : Spanish Service kind                : Complete Main Default                     : Yes Forced                      : Yes Audio #2 ID                          : 3 Format                      : E-AC-3 Format/Info                 : Enhanced AC-3 Commercial name             : Dolby Digital Plus Codec ID                    : A_EAC3 Duration                    : 1 h 42 min Bit rate mode               : Constant Bit rate                    : 640 kb/s Channel(s)                  : 6 channels Channel layout              : L R C LFE Ls Rs Sampling rate               : 48.0 kHz Frame rate                  : 31.250 FPS (1536 SPF) Compression mode            : Lossy Stream size                 : 467 MiB (4%) Title                       : Ingles [CinemaniaHDD] Language                    : English Service kind                : Complete Main Default                     : No Forced                      : No Text #1 ID                          : 4 Format                      : UTF-8 Codec ID                    : S_TEXT/UTF8 Codec ID/Info               : UTF-8 Plain Text Duration                    : 1 h 20 min Bit rate                    : 0 b/s Count of elements           : 22 Stream size                 : 562 Bytes (0%) Title                       : Forzados-SRT [CinemaniaHDD] Language                    : Spanish Default                     : Yes Forced                      : Yes Text #2 ID                          : 5 Format                      : UTF-8 Codec ID                    : S_TEXT/UTF8 Codec ID/Info               : UTF-8 Plain Text Duration                    : 1 h 40 min Bit rate                    : 59 b/s Count of elements           : 1234 Stream size                 : 44.3 KiB (0%) Title                       : Español-SRT [CinemaniaHDD] Language                    : Spanish Default                     : No Forced                      : No Text #3 ID                          : 6 Format                      : UTF-8 Codec ID                    : S_TEXT/UTF8 Codec ID/Info               : UTF-8 Plain Text Duration                    : 1 h 32 min Bit rate                    : 72 b/s Count of elements           : 1301 Stream size                 : 49.3 KiB (0%) Title                       : Ingles-SRT [CinemaniaHDD] Language                    : English Default                     : No Forced                      : No
  • Peso: 11.2 GiB

Sinopsis

Descargar M3GAN (2023) AMZN WEB-DL 4K UHD HDR Latino. Cuando Gemma se convierte en la cuidadora de su sobrina huérfana de 8 años, Cady, Gemma no está segura ni preparada para ser madre. Bajo una intensa presión en el trabajo, Gemma decide emparejar su prototipo M3GAN con Cady en un intento de resolver ambos problemas, una decisión que tendrá consecuencias inimaginables.

Ficha técnica

Video trailer de la película

Enlaces de descarga

Rip de Bluray

Descargar M3GAN (2023) AMZN WEB-DL 4K UHD HDR Latino




Aportes de DPeliculasHDmega la pass es:dpeliculashdmega.org Aportes de CinemaniaHD la pass es:cinemaniahdd.com

Películas relacionadas

descargar M3GAN (2023) AMZN WEB-DL 4K UHD HDR Latino WEBDL 1080p gratis, M3GAN (2023) AMZN WEB-DL 4K UHD HDR Latino WEBDL mega 1 link, M3GAN (2023) AMZN WEB-DL 4K UHD HDR Latino WEBDL pelicula completa, descargar M3GAN (2023) AMZN WEB-DL 4K UHD HDR Latino WEBDL gratis en mega.

M3GAN (2023) AMZN WEB-DL 4K UHD HDR Latino pelicula full hd, M3GAN (2023) AMZN WEB-DL 4K UHD HDR Latino mega latino, M3GAN (2023) AMZN WEB-DL 4K UHD HDR Latino 4k latino, M3GAN (2023) AMZN WEB-DL 4K UHD HDR Latino pelicula completa, M3GAN (2023) AMZN WEB-DL 4K UHD HDR Latino descargar gratis, descargar M3GAN (2023) AMZN WEB-DL 4K UHD HDR Latino pelicula latino, M3GAN (2023) AMZN WEB-DL 4K UHD HDR Latino 1 link mega, M3GAN (2023) AMZN WEB-DL 4K UHD HDR Latino 1 link google drive, M3GAN (2023) AMZN WEB-DL 4K UHD HDR Latino hd 1080p latino.
Comentarios 0