×

¿Problemas para descargar con Mozilla, EDGE? Deshabilita la opción "Abrir vinculos en una pestaña nueva" tal como lo muestra ésta imagen.

M3GAN (2022) UNRATED REMUX 1080p Latino

235 vistas

Información de M3GAN (2022) UNRATED REMUX 1080p Latino

Datos de la película

  • Calidad: Full 1080p
  • Audio: Se especifica abajo de la Sinopsis
  • Subtitulos: Español PGS - Ingles PGS
  • Resolución: 1920x1080p
  • Formato: MKV
  • Codec: H.264
  • Encoder: Melkor
  • Mediainfo: Clic para Mostrar Datos Ver
  • M3GAN (2022) UNRATED REMUX 1080p Latino.mkv
    Format                      : Matroska
    Format version              : Version 4
    File size                   : 23.8 GiB
    Duration                    : 1 h 41 min
    Overall bit rate mode       : Variable
    Overall bit rate            : 33.4 Mb/s
    Movie name                  : M3GAN (2022) CinemaniaHDD.Net
    Encoded date                : UTC 2023-03-16 15:17:58
    Writing application         : mkvmerge v56.1.0 ('My Friend') 64-bit
    Writing library             : libebml v1.4.2 + libmatroska v1.6.4
    Attachments                 : CINEMANIAHD.png
    Site                        : CinemaniaHDD.Net
    Uploader                    : Melkor

    Video
    ID                          : 1
    Format                      : AVC
    Format/Info                 : Advanced Video Codec
    Format profile              : High@L4.1
    Format settings             : CABAC / 2 Ref Frames
    Format settings, CABAC      : Yes
    Format settings, Reference  : 2 frames
    Codec ID                    : V_MPEG4/ISO/AVC
    Duration                    : 1 h 41 min
    Bit rate mode               : Variable
    Bit rate                    : 27.7 Mb/s
    Width                       : 1 920 pixels
    Height                      : 1 080 pixels
    Display aspect ratio        : 16:9
    Frame rate mode             : Constant
    Frame rate                  : 23.976 (24000/1001) FPS
    Color space                 : YUV
    Chroma subsampling          : 4:2:0
    Bit depth                   : 8 bits
    Scan type                   : Progressive
    Bits/(Pixel*Frame)          : 0.556
    Stream size                 : 19.7 GiB (83%)
    Title                       : REMUX HD1080p [CinemaniaHDD]
    Default                     : Yes
    Forced                      : Yes

    Audio #1
    ID                          : 2
    Format                      : AC-3
    Format/Info                 : Audio Coding 3
    Commercial name             : Dolby Digital
    Codec ID                    : A_AC3
    Duration                    : 1 h 41 min
    Bit rate mode               : Constant
    Bit rate                    : 640 kb/s
    Channel(s)                  : 6 channels
    Channel layout              : L R C LFE Ls Rs
    Sampling rate               : 48.0 kHz
    Frame rate                  : 31.250 FPS (1536 SPF)
    Compression mode            : Lossy
    Stream size                 : 466 MiB (2%)
    Title                       : Español Latino AC3 [CinemaniaHDD]
    Language                    : Spanish
    Service kind                : Complete Main
    Default                     : Yes
    Forced                      : Yes

    Audio #2
    ID                          : 3
    Format                      : E-AC-3
    Format/Info                 : Enhanced AC-3
    Commercial name             : Dolby Digital Plus
    Format profile              : Blu-ray Disc
    Codec ID                    : A_EAC3
    Duration                    : 1 h 41 min
    Bit rate mode               : Constant
    Bit rate                    : 768 kb/s
    Channel(s)                  : 8 channels
    Channel layout              : L R C LFE Ls Rs Lb Rb
    Sampling rate               : 48.0 kHz
    Frame rate                  : 31.250 FPS (1536 SPF)
    Compression mode            : Lossy
    Stream size                 : 559 MiB (2%)
    Title                       : Español Latino EAC3 [CinemaniaHDD]
    Language                    : Spanish
    Service kind                : Complete Main
    Default                     : No
    Forced                      : No

    Audio #3
    ID                          : 4
    Format                      : DTS XLL
    Format/Info                 : Digital Theater Systems
    Commercial name             : DTS-HD Master Audio
    Codec ID                    : A_DTS
    Duration                    : 1 h 41 min
    Bit rate mode               : Variable
    Bit rate                    : 4 313 kb/s
    Channel(s)                  : 8 channels
    Channel layout              : C L R LFE Lb Rb Lss Rss
    Sampling rate               : 48.0 kHz
    Frame rate                  : 93.750 FPS (512 SPF)
    Bit depth                   : 24 bits
    Compression mode            : Lossless
    Stream size                 : 3.07 GiB (13%)
    Title                       : Ingles [CinemaniaHDD]
    Language                    : English
    Default                     : No
    Forced                      : No

    Text #1
    ID                          : 5
    Format                      : PGS
    Muxing mode                 : zlib
    Codec ID                    : S_HDMV/PGS
    Codec ID/Info               : Picture based subtitle format used on BDs/HD-DVDs
    Duration                    : 1 h 41 min
    Bit rate                    : 142 b/s
    Count of elements           : 34
    Stream size                 : 106 KiB (0%)
    Title                       : Forzados-PGS [CinemaniaHDD]
    Language                    : Spanish
    Default                     : No
    Forced                      : No

    Text #2
    ID                          : 6
    Format                      : PGS
    Muxing mode                 : zlib
    Codec ID                    : S_HDMV/PGS
    Codec ID/Info               : Picture based subtitle format used on BDs/HD-DVDs
    Duration                    : 1 h 40 min
    Bit rate                    : 41.0 kb/s
    Count of elements           : 2468
    Stream size                 : 29.5 MiB (0%)
    Title                       : Español-PGS [CinemaniaHDD]
    Language                    : Spanish
    Default                     : No
    Forced                      : No

    Text #3
    ID                          : 7
    Format                      : PGS
    Muxing mode                 : zlib
    Codec ID                    : S_HDMV/PGS
    Codec ID/Info               : Picture based subtitle format used on BDs/HD-DVDs
    Duration                    : 1 h 32 min
    Bit rate                    : 53.9 kb/s
    Count of elements           : 3006
    Stream size                 : 35.8 MiB (0%)
    Title                       : Ingles-PGS [CinemaniaHDD]
    Language                    : English
    Default                     : No
    Forced                      : No

    Text #4
    ID                          : 8
    Format                      : UTF-8
    Codec ID                    : S_TEXT/UTF8
    Codec ID/Info               : UTF-8 Plain Text
    Duration                    : 1 h 14 min
    Bit rate                    : 0 b/s
    Count of elements           : 14
    Stream size                 : 376 Bytes (0%)
    Title                       : Forzados-SRT [CinemaniaHDD]
    Language                    : Spanish
    Default                     : Yes
    Forced                      : Yes

    Text #5
    ID                          : 9
    Format                      : UTF-8
    Codec ID                    : S_TEXT/UTF8
    Codec ID/Info               : UTF-8 Plain Text
    Duration                    : 1 h 32 min
    Bit rate                    : 69 b/s
    Count of elements           : 1527
    Stream size                 : 46.9 KiB (0%)
    Title                       : Español-SRT [CinemaniaHDD]
    Language                    : Spanish
    Default                     : No
    Forced                      : No

    Menu
    00:00:00.000                : :Chapter 01
    00:03:55.569                : :Chapter 02
    00:10:43.518                : :Chapter 03
    00:14:50.890                : :Chapter 04
    00:19:45.059                : :Chapter 05
    00:24:07.112                : :Chapter 06
    00:28:18.196                : :Chapter 07
    00:33:20.624                : :Chapter 08
    00:39:21.150                : :Chapter 09
    00:45:10.583                : :Chapter 10
    00:50:49.046                : :Chapter 11
    00:57:41.041                : :Chapter 12
    01:01:09.541                : :Chapter 13
    01:05:39.394                : :Chapter 14
    01:09:43.763                : :Chapter 15
    01:15:52.965                : :Chapter 16
    01:18:28.287                : :Chapter 17
    01:21:25.839                : :Chapter 18
    01:29:00.960                : :Chapter 19
    01:33:45.745                : :Chapter 20
    01:41:50.271                : :Chapter 21

  • Peso: 23.8 GiB

Sinopsis

Descargar M3GAN (2022) UNRATED REMUX 1080p Latino. Cuando Gemma se convierte en la cuidadora de su sobrina huérfana de 8 años, Cady, Gemma no está segura ni preparada para ser madre. Bajo una intensa presión en el trabajo, Gemma decide emparejar su prototipo M3GAN con Cady en un intento de resolver ambos problemas, una decisión que tendrá consecuencias inimaginables.

Español Latino EAC3 7.1 & Core AC3 5.1 BD – Ingles DTS-HD 7.1 BD

Ficha técnica

Video trailer de la película

Enlaces de descarga

Rip de Bluray

Descargar M3GAN (2022) UNRATED REMUX 1080p Latino




Aportes de DPeliculasHDmega la pass es:dpeliculashdmega.org Aportes de CinemaniaHD la pass es:cinemaniahdd.com Aportes recientes:cinemaniahdd.net
Guardado en : Ciencia ficción , Comedia , Remux , Terror

Películas relacionadas

descargar M3GAN (2022) UNRATED REMUX 1080p Latino Full 1080p 1080p gratis, M3GAN (2022) UNRATED REMUX 1080p Latino Full 1080p mega 1 link, M3GAN (2022) UNRATED REMUX 1080p Latino Full 1080p pelicula completa, descargar M3GAN (2022) UNRATED REMUX 1080p Latino Full 1080p gratis en mega.

M3GAN (2022) UNRATED REMUX 1080p Latino pelicula full hd, M3GAN (2022) UNRATED REMUX 1080p Latino mega latino, M3GAN (2022) UNRATED REMUX 1080p Latino 4k latino, M3GAN (2022) UNRATED REMUX 1080p Latino pelicula completa, M3GAN (2022) UNRATED REMUX 1080p Latino descargar gratis, descargar M3GAN (2022) UNRATED REMUX 1080p Latino pelicula latino, M3GAN (2022) UNRATED REMUX 1080p Latino 1 link mega, M3GAN (2022) UNRATED REMUX 1080p Latino 1 link google drive, M3GAN (2022) UNRATED REMUX 1080p Latino hd 1080p latino.
Comentarios 0