×

¿Problemas para descargar con Mozilla, EDGE? Deshabilita la opción "Abrir vinculos en una pestaña nueva" tal como lo muestra ésta imagen.

M3GAN (2022) MA WEB-DL 1080p Latino

37 vistas

Información de M3GAN (2022) MA WEB-DL 1080p Latino

Datos de la película

  • Calidad: WEBDL
  • Audio: Español Latino AC3 5.1 WEB-DL - Ingles AC3 5.1 WEB-DL
  • Subtitulos: Español Latino SRT- FORZADOS SRT
  • Resolución: 1920x1080p
  • Formato: MKV
  • Codec: H.264
  • Encoder: Melkor
  • Mediainfo: Clic para Mostrar Datos Ver
  • M3GAN (2022) MA WEB-DL 1080p Latino.mkv Format                      : Matroska Format version              : Version 4 File size                   : 6.37 GiB Duration                    : 1 h 41 min Overall bit rate            : 8 944 kb/s Movie name                  : M3GAN (2022) CinemaniaHDD.Net Encoded date                : UTC 2023-01-24 17:25:34 Writing application         : mkvmerge v56.1.0 ('My Friend') 64-bit Writing library             : libebml v1.4.2 + libmatroska v1.6.4 Attachments                 : CINEMANIAHD.png Video ID                          : 1 Format                      : AVC Format/Info                 : Advanced Video Codec Format profile              : High@L4 Format settings             : CABAC / 4 Ref Frames Format settings, CABAC      : Yes Format settings, Reference  : 4 frames Codec ID                    : V_MPEG4/ISO/AVC Duration                    : 1 h 41 min Bit rate                    : 8 000 kb/s Width                       : 1 920 pixels Height                      : 1 080 pixels Display aspect ratio        : 16:9 Frame rate mode             : Constant Frame rate                  : 23.976 (24000/1001) FPS Color space                 : YUV Chroma subsampling          : 4:2:0 Bit depth                   : 8 bits Scan type                   : Progressive Bits/(Pixel*Frame)          : 0.161 Stream size                 : 5.55 GiB (87%) Title                       : Web HD1080p [CinemaniaHDD] Writing library             : x264 core 164 r3094 bfc87b7 Encoding settings           : cabac=1 / ref=4 / deblock=1:-1:-1 / analyse=0x3:0x133 / me=umh / subme=9 / psy=1 / psy_rd=1.00:0.15 / mixed_ref=1 / me_range=16 / chroma_me=1 / trellis=2 / 8x8dct=1 / cqm=0 / deadzone=21,11 / fast_pskip=1 / chroma_qp_offset=-3 / threads=12 / lookahead_threads=1 / sliced_threads=0 / nr=0 / decimate=1 / interlaced=0 / bluray_compat=0 / stitchable=1 / constrained_intra=0 / bframes=3 / b_pyramid=2 / b_adapt=2 / b_bias=0 / direct=3 / weightb=1 / open_gop=0 / weightp=2 / keyint=48 / keyint_min=4 / scenecut=0 / intra_refresh=0 / rc_lookahead=48 / rc=abr / mbtree=1 / bitrate=8000 / ratetol=1.0 / qcomp=0.60 / qpmin=0 / qpmax=69 / qpstep=4 / vbv_maxrate=8800 / vbv_bufsize=16000 / nal_hrd=none / filler=0 / ip_ratio=1.40 / aq=1:1.00 Language                    : English Default                     : Yes Forced                      : Yes Color range                 : Limited Color primaries             : BT.709 Transfer characteristics    : BT.709 Matrix coefficients         : BT.709 Audio #1 ID                          : 2 Format                      : AC-3 Format/Info                 : Audio Coding 3 Commercial name             : Dolby Digital Codec ID                    : A_AC3 Duration                    : 1 h 41 min Bit rate mode               : Constant Bit rate                    : 384 kb/s Channel(s)                  : 6 channels Channel layout              : L R C LFE Ls Rs Sampling rate               : 48.0 kHz Frame rate                  : 31.250 FPS (1536 SPF) Compression mode            : Lossy Delay relative to video     : 1 s 84 ms Stream size                 : 280 MiB (4%) Title                       : Español Latino [CinemaniaHDD] Language                    : Spanish Service kind                : Complete Main Default                     : Yes Forced                      : Yes Audio #2 ID                          : 3 Format                      : E-AC-3 JOC Format/Info                 : Enhanced AC-3 with Joint Object Coding Commercial name             : Dolby Digital Plus with Dolby Atmos Codec ID                    : A_EAC3 Duration                    : 1 h 41 min Bit rate mode               : Constant Bit rate                    : 768 kb/s Channel(s)                  : 6 channels Channel layout              : L R C LFE Ls Rs Sampling rate               : 48.0 kHz Frame rate                  : 31.250 FPS (1536 SPF) Compression mode            : Lossy Delay relative to video     : 1 s 84 ms Stream size                 : 560 MiB (9%) Title                       : Ingles [CinemaniaHDD] Language                    : English Service kind                : Complete Main Default                     : No Forced                      : No Complexity index            : 16 Number of dynamic objects   : 15 Bed channel count           : 1 channel Bed channel configuration   : LFE Text #1 ID                          : 4 Format                      : UTF-8 Codec ID                    : S_TEXT/UTF8 Codec ID/Info               : UTF-8 Plain Text Duration                    : 1 h 20 min Bit rate                    : 0 b/s Count of elements           : 22 Stream size                 : 562 Bytes (0%) Title                       : Forzados-SRT [CinemaniaHDD] Language                    : Spanish Default                     : Yes Forced                      : Yes Text #2 ID                          : 5 Format                      : UTF-8 Codec ID                    : S_TEXT/UTF8 Codec ID/Info               : UTF-8 Plain Text Duration                    : 1 h 40 min Bit rate                    : 61 b/s Count of elements           : 1234 Stream size                 : 45.3 KiB (0%) Title                       : Español-SRT [CinemaniaHDD] Language                    : Spanish Default                     : No Forced                      : No Text #3 ID                          : 6 Format                      : UTF-8 Codec ID                    : S_TEXT/UTF8 Codec ID/Info               : UTF-8 Plain Text Duration                    : 1 h 32 min Bit rate                    : 80 b/s Count of elements           : 1490 Stream size                 : 54.6 KiB (0%) Title                       : Ingles-SRT [CinemaniaHDD] Language                    : English Default                     : No Forced                      : No Menu 00:00:01.084                : Chapter 01 00:09:22.019                : Chapter 02 00:14:06.929                : Chapter 03 00:19:45.476                : Chapter 04 00:28:17.989                : Chapter 05 00:32:57.059                : Chapter 06 00:39:20.443                : Chapter 07 00:43:37.742                : Chapter 08 00:48:43.589                : Chapter 09 00:56:59.419                : Chapter 10 01:01:04.956                : Chapter 11 01:07:15.493                : Chapter 12 01:14:47.862                : Chapter 13 01:21:38.940                : Chapter 14 01:29:45.009                : Chapter 15 01:33:14.385                : Chapter 16
  • Peso: 6.37 GiB

Sinopsis

Descargar M3GAN (2022) MA WEB-DL 1080p Latino. Cuando Gemma se convierte en la cuidadora de su sobrina huérfana de 8 años, Cady, Gemma no está segura ni preparada para ser madre. Bajo una intensa presión en el trabajo, Gemma decide emparejar su prototipo M3GAN con Cady en un intento de resolver ambos problemas, una decisión que tendrá consecuencias inimaginables.

Ficha técnica

Video trailer de la película

Enlaces de descarga

Rip de Bluray

Descargar M3GAN (2022) MA WEB-DL 1080p Latino




Aportes de DPeliculasHDmega la pass es:dpeliculashdmega.org Aportes de CinemaniaHD la pass es:cinemaniahdd.com
Guardado en : Ciencia ficción , Comedia , Terror

Películas relacionadas

descargar M3GAN (2022) MA WEB-DL 1080p Latino WEBDL 1080p gratis, M3GAN (2022) MA WEB-DL 1080p Latino WEBDL mega 1 link, M3GAN (2022) MA WEB-DL 1080p Latino WEBDL pelicula completa, descargar M3GAN (2022) MA WEB-DL 1080p Latino WEBDL gratis en mega.

M3GAN (2022) MA WEB-DL 1080p Latino pelicula full hd, M3GAN (2022) MA WEB-DL 1080p Latino mega latino, M3GAN (2022) MA WEB-DL 1080p Latino 4k latino, M3GAN (2022) MA WEB-DL 1080p Latino pelicula completa, M3GAN (2022) MA WEB-DL 1080p Latino descargar gratis, descargar M3GAN (2022) MA WEB-DL 1080p Latino pelicula latino, M3GAN (2022) MA WEB-DL 1080p Latino 1 link mega, M3GAN (2022) MA WEB-DL 1080p Latino 1 link google drive, M3GAN (2022) MA WEB-DL 1080p Latino hd 1080p latino.
Comentarios 0