×

¿Problemas para descargar con Mozilla, EDGE? Deshabilita la opción "Abrir vinculos en una pestaña nueva" tal como lo muestra ésta imagen.

Lying and Stealing (2019) 1080p Latino

1.200 vistas

Información de Lying and Stealing (2019) 1080p Latino

Datos de la película

  • Calidad: 1080p
  • Audio: Español Latino AC3 2.0 Capturado - Ingles AC3 5.1 BLURAY
  • Subtitulos: No
  • Resolución: 1920x800
  • Formato: MKV
  • Codec: H.264
  • Encoder: cinemaniahdd
  • Mediainfo: Clic para Mostrar Datos Ver
  • Lying and Stealing (2019) 1080p Latino.mkv
    Format                      : Matroska
    Format version              : Version 4
    File size                   : 2.92 GiB
    Duration                    : 1 h 40 min
    Overall bit rate            : 4 177 kb/s
    Movie name                  : Lying and Stealing (2019) - CinemaniaHDD.Net
    Encoded date                : UTC 2019-11-12 15:34:52
    Writing application         : mkvmerge v38.0.0 ('The Silent Type') 64-bit
    Writing library             : libebml v1.3.9 + libmatroska v1.5.2

    Video
    ID                          : 1
    Format                      : AVC
    Format/Info                 : Advanced Video Codec
    Format profile              : Main@L4
    Format settings             : CABAC / 5 Ref Frames
    Format settings, CABAC      : Yes
    Format settings, ReFrames   : 5 frames
    Codec ID                    : V_MPEG4/ISO/AVC
    Duration                    : 1 h 40 min
    Bit rate                    : 3 500 kb/s
    Width                       : 1 920 pixels
    Height                      : 800 pixels
    Display aspect ratio        : 2.40:1
    Frame rate mode             : Constant
    Frame rate                  : 23.976 (24000/1001) FPS
    Color space                 : YUV
    Chroma subsampling          : 4:2:0
    Bit depth                   : 8 bits
    Scan type                   : Progressive
    Bits/(Pixel*Frame)          : 0.095
    Stream size                 : 2.43 GiB (83%)
    Title                       : CinemaniaHDD.Net
    Writing library             : x264 core 157 r2935 545de2f
    Encoding settings           : cabac=1 / ref=5 / deblock=1:0:0 / analyse=0x1:0x111 / me=hex / subme=8 / psy=1 / psy_rd=1.00:0.00 / mixed_ref=1 / me_range=16 / chroma_me=1 / trellis=2 / 8x8dct=0 / cqm=0 / deadzone=21,11 / fast_pskip=1 / chroma_qp_offset=-2 / threads=25 / lookahead_threads=4 / sliced_threads=0 / nr=0 / decimate=1 / interlaced=0 / bluray_compat=0 / constrained_intra=0 / bframes=3 / b_pyramid=2 / b_adapt=1 / b_bias=0 / direct=3 / weightb=1 / open_gop=0 / weightp=2 / keyint=240 / keyint_min=24 / scenecut=40 / intra_refresh=0 / rc_lookahead=50 / rc=abr / mbtree=1 / bitrate=3500 / ratetol=1.0 / qcomp=0.60 / qpmin=0 / qpmax=69 / qpstep=4 / vbv_maxrate=20000 / vbv_bufsize=25000 / nal_hrd=none / filler=0 / ip_ratio=1.40 / aq=1:1.00
    Default                     : Yes
    Forced                      : No
    Color range                 : Limited
    Color primaries             : BT.709
    Transfer characteristics    : BT.709
    Matrix coefficients         : BT.709

    Audio #1
    ID                          : 2
    Format                      : AC-3
    Format/Info                 : Audio Coding 3
    Commercial name             : Dolby Digital
    Codec ID                    : A_AC3
    Duration                    : 1 h 40 min
    Bit rate mode               : Constant
    Bit rate                    : 256 kb/s
    Channel(s)                  : 2 channels
    Channel layout              : L R
    Sampling rate               : 44.1 kHz
    Frame rate                  : 28.711 FPS (1536 SPF)
    Bit depth                   : 16 bits
    Compression mode            : Lossy
    Delay relative to video     : -5 ms
    Stream size                 : 184 MiB (6%)
    Title                       : Español latino [CinemaniaHDD]
    Language                    : Spanish
    Service kind                : Complete Main
    Default                     : Yes
    Forced                      : No

    Audio #2
    ID                          : 3
    Format                      : AC-3
    Format/Info                 : Audio Coding 3
    Commercial name             : Dolby Digital
    Codec ID                    : A_AC3
    Duration                    : 1 h 40 min
    Bit rate mode               : Constant
    Bit rate                    : 448 kb/s
    Channel(s)                  : 6 channels
    Channel layout              : L R C LFE Ls Rs
    Sampling rate               : 48.0 kHz
    Frame rate                  : 31.250 FPS (1536 SPF)
    Bit depth                   : 16 bits
    Compression mode            : Lossy
    Delay relative to video     : -5 ms
    Stream size                 : 321 MiB (11%)
    Title                       : Inglés [CinemaniaHDD]
    Language                    : English
    Service kind                : Complete Main
    Default                     : No
    Forced                      : No

    Menu
    00:00:00.000                : :Chapter 1
    00:14:24.822                : :Chapter 2
    00:25:44.126                : :Chapter 3
    00:38:43.947                : :Chapter 4
    00:50:55.886                : :Chapter 5
    01:03:47.657                : :Chapter 6
    01:20:59.146                : :Chapter 7
    01:38:10.093                : :Chapter 8

     

  • Peso: 2.92 GiB

Sinopsis

Ivan (Theo James) es un ladrón de arte que quiere dejar su oficio. Elysa (Emily Ratajkowski) es una aspirante a actriz a quien persiguen sus pecados en Hollywood, así como una montaña de deudas. Cuando se conocen, ambos sienten una gran atracción mutua.

Ficha técnica

Video trailer de la película

Enlaces de descarga

Rip de Bluray

Descargar Lying and Stealing (2019) 1080p Latino




Aportes de DPeliculasHDmega la pass es:dpeliculashdmega.org Aportes de CinemaniaHD la pass es:cinemaniahdd.com
Guardado en : Comedia , Crimen , HD 1080p

Películas relacionadas

descargar Lying and Stealing (2019) 1080p Latino 1080p 1080p gratis, Lying and Stealing (2019) 1080p Latino 1080p mega 1 link, Lying and Stealing (2019) 1080p Latino 1080p pelicula completa, descargar Lying and Stealing (2019) 1080p Latino 1080p gratis en mega.

Lying and Stealing (2019) 1080p Latino pelicula full hd, Lying and Stealing (2019) 1080p Latino mega latino, Lying and Stealing (2019) 1080p Latino 4k latino, Lying and Stealing (2019) 1080p Latino pelicula completa, Lying and Stealing (2019) 1080p Latino descargar gratis, descargar Lying and Stealing (2019) 1080p Latino pelicula latino, Lying and Stealing (2019) 1080p Latino 1 link mega, Lying and Stealing (2019) 1080p Latino 1 link google drive, Lying and Stealing (2019) 1080p Latino hd 1080p latino.
Comentarios 0