Lupe (2019) WEB-DL 1080p Latino

59 vistas
1 estrella2 estrellas3 estrellas4 estrellas5 estrellas (1 votos, promedio: 5,00 de 5)
Cargando...

Información de Lupe (2019) WEB-DL 1080p Latino

Datos de la película

  • Calidad: WEBDL
  • Audio: Español Latino AC3 2.0 WEB-DL - Ingles AC3 5.1 WEB-DL
  • Subtitulos: Español Latino SRT - Ingles SRT
  • Resolución: 1920x1080
  • Formato: MKV
  • Codec: H.264
  • Encoder: cinemaniahdd
  • Mediainfo: Clic para Mostrar Datos Ver
  • Lupe (2019) WEB-DL 1080p Latino [CNMNHDD].mkv
    Format                      : Matroska
    Format version              : Version 4
    File size                   : 4.94 GiB
    Duration                    : 1 h 18 min
    Overall bit rate mode       : Variable
    Overall bit rate            : 9 011 kb/s
    Movie name                  : Lupe (2019) - CinemaniaHDD.Net
    Encoded date                : UTC 2021-02-28 20:52:28
    Writing application         : mkvmerge v51.0.0 ('I Wish') 64-bit
    Writing library             : libebml v1.4.0 + libmatroska v1.6.2

    Video
    ID                          : 1
    Format                      : AVC
    Format/Info                 : Advanced Video Codec
    Format profile              : High@L4
    Format settings             : CABAC / 4 Ref Frames
    Format settings, CABAC      : Yes
    Format settings, Reference  : 4 frames
    Codec ID                    : V_MPEG4/ISO/AVC
    Duration                    : 1 h 18 min
    Bit rate mode               : Variable
    Bit rate                    : 8 241 kb/s
    Maximum bit rate            : 12.4 Mb/s
    Width                       : 1 920 pixels
    Height                      : 1 080 pixels
    Display aspect ratio        : 16:9
    Frame rate mode             : Constant
    Frame rate                  : 23.976 (24000/1001) FPS
    Color space                 : YUV
    Chroma subsampling          : 4:2:0
    Bit depth                   : 8 bits
    Scan type                   : Progressive
    Bits/(Pixel*Frame)          : 0.166
    Stream size                 : 4.52 GiB (91%)
    Title                       : CinemaniaHDD
    Language                    : English
    Default                     : Yes
    Forced                      : No
    Color range                 : Limited
    Color primaries             : BT.709
    Transfer characteristics    : BT.709
    Matrix coefficients         : BT.709

    Audio #1
    ID                          : 2
    Format                      : AC-3
    Format/Info                 : Audio Coding 3
    Commercial name             : Dolby Digital
    Codec ID                    : A_AC3
    Duration                    : 1 h 18 min
    Bit rate mode               : Constant
    Bit rate                    : 384 kb/s
    Channel(s)                  : 2 channels
    Channel layout              : L R
    Sampling rate               : 48.0 kHz
    Frame rate                  : 31.250 FPS (1536 SPF)
    Compression mode            : Lossy
    Stream size                 : 216 MiB (4%)
    Title                       : Español latino [CinemaniaHDD]
    Language                    : Spanish
    Service kind                : Complete Main
    Default                     : Yes
    Forced                      : No

    Audio #2
    ID                          : 3
    Format                      : AC-3
    Format/Info                 : Audio Coding 3
    Commercial name             : Dolby Digital
    Codec ID                    : A_AC3
    Duration                    : 1 h 18 min
    Bit rate mode               : Constant
    Bit rate                    : 384 kb/s
    Channel(s)                  : 6 channels
    Channel layout              : L R C LFE Ls Rs
    Sampling rate               : 48.0 kHz
    Frame rate                  : 31.250 FPS (1536 SPF)
    Compression mode            : Lossy
    Stream size                 : 216 MiB (4%)
    Title                       : Inglés [CinemaniaHDD]
    Language                    : English
    Service kind                : Complete Main
    Default                     : No
    Forced                      : No

    Text #1
    ID                          : 4
    Format                      : UTF-8
    Codec ID                    : S_TEXT/UTF8
    Codec ID/Info               : UTF-8 Plain Text
    Duration                    : 1 h 17 min
    Bit rate                    : 14 b/s
    Count of elements           : 365
    Stream size                 : 8.34 KiB (0%)
    Title                       : Español latino [CC] [CinemaniaHDD]
    Language                    : Spanish
    Default                     : No
    Forced                      : No

    Text #2
    ID                          : 5
    Format                      : UTF-8
    Codec ID                    : S_TEXT/UTF8
    Codec ID/Info               : UTF-8 Plain Text
    Duration                    : 1 h 16 min
    Bit rate                    : 48 b/s
    Count of elements           : 1067
    Stream size                 : 26.9 KiB (0%)
    Title                       : Inglés [CC] [CinemaniaHDD]
    Language                    : English
    Default                     : No
    Forced                      : No

     

  • Peso: 4.94 GiB

Sinopsis

Un inmigrante cubano que lucha con su identidad transgénero busca a su hermana en la industria del sexo clandestina de la ciudad de Nueva York.

Ficha técnica

  • Titulo original: Lupe
  • Fecha de lanzamiento: 08-03-2019 (Mexico)
  • Director: Andre Phillips, Charles Vuolo
  • Género: Drama
  • Puntuación: 5.0 1 votos
  • Duración:
    1h 17m

Video trailer de la película

Enlaces de descarga

Rip de Bluray

Descargar Lupe (2019) WEB-DL 1080p Latino




Aportes de DPeliculasHDmega la pass es:dpeliculashdmega.org Aportes de CinemaniaHD la pass es:cinemaniahdd.com
Guardado en : Drama

Películas relacionadas

  • Sola (2020) HD 1080p Latino

    Sola (2020) HD 1080p Latino

    2020
    Sola (2020) HD 1080p Latino

    0.0 1h 40m 2020

    Descargar Sola (2020) HD 1080p Latino. Una mujer viuda que viaja sola es secuestrada por un asesino a...

    Director: John Hyams

    Género: Drama

    Actores: Shelly Lipkin

  • Sola (2020) REMUX 1080p Latino

    Sola (2020) REMUX 1080p Latino

    2020
    Sola (2020) REMUX 1080p Latino

    5.0 1h 40m 2020

    Descargar Sola (2020) REMUX 1080p Latino. Una mujer viuda que viaja sola es secuestrada por un asesino...

    Director: John Hyams

    Género: Drama

    Actores: Shelly Lipkin

Lupe (2019) WEB-DL 1080p Latino pelicula full hd, Lupe (2019) WEB-DL 1080p Latino mega latino, Lupe (2019) WEB-DL 1080p Latino 4k latino, Lupe (2019) WEB-DL 1080p Latino pelicula completa, Lupe (2019) WEB-DL 1080p Latino descargar gratis, descargar Lupe (2019) WEB-DL 1080p Latino pelicula latino, Lupe (2019) WEB-DL 1080p Latino 1 link mega, Lupe (2019) WEB-DL 1080p Latino 1 link google drive, Lupe (2019) WEB-DL 1080p Latino hd 1080p latino.
Comentarios 1
  • will - 28 febrero, 2021

    muchas gracias