×

¿Problemas para descargar con Mozilla, EDGE? Deshabilita la opción "Abrir vinculos en una pestaña nueva" tal como lo muestra ésta imagen.

Luna Nera (2020) Temporada 1 NF WEB-DL 1080p Latino

1.384 vistas

Información de Luna Nera (2020) Temporada 1 NF WEB-DL 1080p Latino

Datos de la película

  • Calidad: WEBDL
  • Audio: Español Latino AC3 5.1 Netflix - Ingles AC3 5.1 Netflix
  • Subtitulos: Español Latino SRT- FORZADOS SRT
  • Resolución: 1920x1080
  • Formato: MKV
  • Codec: H.264
  • Encoder: cinemaniahdd
  • Mediainfo: Clic para Mostrar Datos Ver
  • Luna nera S01E06 NF WEB-DL 1080p Latino.mkv
    Format                      : Matroska
    Format version              : Version 4
    File size                   : 2.14 GiB
    Duration                    : 56 min 2 s
    Overall bit rate mode       : Variable
    Overall bit rate            : 5 460 kb/s
    Movie name                  : Luna nera S01E06 - CinemaniaHDD.Net
    Encoded date                : UTC 2020-02-01 03:14:06
    Writing application         : mkvmerge v42.0.0 ('Overtime') 64-bit
    Writing library             : libebml v1.3.10 + libmatroska v1.5.2

    Video
    ID                          : 1
    Format                      : AVC
    Format/Info                 : Advanced Video Codec
    Format profile              : Main@L4
    Format settings             : CABAC / 3 Ref Frames
    Format settings, CABAC      : Yes
    Format settings, ReFrames   : 3 frames
    Codec ID                    : V_MPEG4/ISO/AVC
    Duration                    : 56 min 2 s
    Bit rate mode               : Variable
    Bit rate                    : 4 690 kb/s
    Maximum bit rate            : 7 305 kb/s
    Width                       : 1 920 pixels
    Height                      : 1 080 pixels
    Display aspect ratio        : 16:9
    Frame rate mode             : Constant
    Frame rate                  : 24.000 FPS
    Color space                 : YUV
    Chroma subsampling          : 4:2:0
    Bit depth                   : 8 bits
    Scan type                   : Progressive
    Bits/(Pixel*Frame)          : 0.094
    Stream size                 : 1.84 GiB (86%)
    Title                       : CinemaniaHDD
    Default                     : Yes
    Forced                      : No

    Audio #1
    ID                          : 2
    Format                      : AC-3
    Format/Info                 : Audio Coding 3
    Commercial name             : Dolby Digital
    Codec ID                    : A_AC3
    Duration                    : 56 min 2 s
    Bit rate mode               : Constant
    Bit rate                    : 384 kb/s
    Channel(s)                  : 6 channels
    Channel layout              : L R C LFE Ls Rs
    Sampling rate               : 48.0 kHz
    Frame rate                  : 31.250 FPS (1536 SPF)
    Bit depth                   : 16 bits
    Compression mode            : Lossy
    Stream size                 : 154 MiB (7%)
    Title                       : Español latino [CinemaniaHDD]
    Language                    : Spanish
    Service kind                : Complete Main
    Default                     : Yes
    Forced                      : No

    Audio #2
    ID                          : 3
    Format                      : AC-3
    Format/Info                 : Audio Coding 3
    Commercial name             : Dolby Digital
    Codec ID                    : A_AC3
    Duration                    : 56 min 2 s
    Bit rate mode               : Constant
    Bit rate                    : 384 kb/s
    Channel(s)                  : 6 channels
    Channel layout              : L R C LFE Ls Rs
    Sampling rate               : 48.0 kHz
    Frame rate                  : 31.250 FPS (1536 SPF)
    Bit depth                   : 16 bits
    Compression mode            : Lossy
    Stream size                 : 154 MiB (7%)
    Title                       : Italiano [CinemaniaHDD]
    Language                    : Italian
    Service kind                : Complete Main
    Default                     : No
    Forced                      : No

    Text #1
    ID                          : 4
    Format                      : UTF-8
    Codec ID                    : S_TEXT/UTF8
    Codec ID/Info               : UTF-8 Plain Text
    Duration                    : 1 s 958 ms
    Bit rate                    : 118 b/s
    Count of elements           : 1
    Stream size                 : 29.0 Bytes (0%)
    Title                       : Forzados [CinemaniaHDD]
    Language                    : Spanish
    Default                     : Yes
    Forced                      : Yes

    Text #2
    ID                          : 5
    Format                      : UTF-8
    Codec ID                    : S_TEXT/UTF8
    Codec ID/Info               : UTF-8 Plain Text
    Duration                    : 55 min 21 s
    Bit rate                    : 20 b/s
    Count of elements           : 328
    Stream size                 : 8.50 KiB (0%)
    Title                       : Español latino [CinemaniaHDD]
    Language                    : Spanish
    Default                     : No
    Forced                      : No

     

  • Peso: 2.14 GiB C/U

Sinopsis

En la Italia del siglo XVII, una adolescente se entera de su destino entre una familia de brujas, justo cuando el padre de su novio la persigue por brujería.

Ficha técnica

Video trailer de la película

Enlaces de descarga

Rip de Bluray

Descargar Luna Nera (2020) Temporada 1 NF WEB-DL 1080p Latino




Aportes de DPeliculasHDmega la pass es:dpeliculashdmega.org Aportes de CinemaniaHD la pass es:cinemaniahdd.com
Guardado en : Netflix , Sci-Fi & Fantasy , Series

Películas relacionadas

  • Togo (2022) NF WEB-DL 1080p Latino

    Togo (2022) NF WEB-DL 1080p Latino

    2022
    Togo (2022) NF WEB-DL 1080p Latino

    1h 35m 2022

    Descargar Togo (2022) NF WEB-DL 1080p Latino. Los narcos de poca monta están copando las calles de Montevideo...

    Director: Adrián Caetano

    Género: Crimen

    Actores: Tito Prieto

  • Star Wars: Andor (2022) Temporada 1 WEB-DL 1080p Latino

    Star Wars: Andor (2022) Temporada 1 WEB-DL 1080p Latino

    2022
    Star Wars: Andor (2022) Temporada 1 WEB-DL 1080p Latino

    0h 0m 2022

    Descargar Star Wars: Andor (2022) Temporada 1 WEB-DL 1080p Latino. Serie precuela de 'Star Wars; Rogue...

    Director: Tony Gilroy

    Género: Action & Adventure

    Actores: Stellan Skarsgård

descargar Luna Nera (2020) Temporada 1 NF WEB-DL 1080p Latino WEBDL 1080p gratis, Luna Nera (2020) Temporada 1 NF WEB-DL 1080p Latino WEBDL mega 1 link, Luna Nera (2020) Temporada 1 NF WEB-DL 1080p Latino WEBDL serie completa, descargar Luna Nera (2020) Temporada 1 NF WEB-DL 1080p Latino WEBDL gratis en mega.

Luna Nera (2020) Temporada 1 NF WEB-DL 1080p Latino pelicula full hd, Luna Nera (2020) Temporada 1 NF WEB-DL 1080p Latino mega latino, Luna Nera (2020) Temporada 1 NF WEB-DL 1080p Latino 4k latino, Luna Nera (2020) Temporada 1 NF WEB-DL 1080p Latino pelicula completa, Luna Nera (2020) Temporada 1 NF WEB-DL 1080p Latino descargar gratis, descargar Luna Nera (2020) Temporada 1 NF WEB-DL 1080p Latino pelicula latino, Luna Nera (2020) Temporada 1 NF WEB-DL 1080p Latino 1 link mega, Luna Nera (2020) Temporada 1 NF WEB-DL 1080p Latino 1 link google drive, Luna Nera (2020) Temporada 1 NF WEB-DL 1080p Latino hd 1080p latino.
Comentarios 0