Luna de miel en familia (2014) Full 1080p Latino

1.449 vistas
1 estrella2 estrellas3 estrellas4 estrellas5 estrellas (5 votos, promedio: 5,00 de 5)
Cargando…

Información de Luna de miel en familia (2014) Full 1080p Latino

Datos de la película

  • Calidad: Full 1080p
  • Audio: Español Latino AC3 5.1 BLURAY - Ingles DTS 5.1 BLURAY
  • Subtitulos: Español Latino PGS - Ingles PGS
  • Resolución: 1920X1080
  • Formato: MKV
  • Codec: H.264
  • Encoder: Dpelis
  • Mediainfo: Clic para Mostrar Datos Ver
  • Format                                   : Matroska
    Format version                           : Version 4 / Version 2
    File size                                : 5.37 GiB
    Duration                                 : 1 h 57 min
    Overall bit rate                         : 6 564 kb/s
    Movie name                               : dpeliculashdmega.org
    Encoded date                             : UTC 2017-11-29 04:31:14 / UTC 2017-11-29T00:51:10Z
    Writing application                      : mkvmerge v15.0.0 ('Duel with the Devil') 64-bit
    Writing library                          : libebml v1.3.5 + libmatroska v1.4.5 / Lavf57.7.2

    Video
    ID                                       : 1
    Format                                   : AVC
    Format/Info                              : Advanced Video Codec
    Format profile                           : High@L4.1
    Format settings                          : CABAC / 4 Ref Frames
    Format settings, CABAC                   : Yes
    Format settings, RefFrames               : 4 frames
    Codec ID                                 : V_MPEG4/ISO/AVC
    Duration                                 : 1 h 57 min
    Bit rate                                 : 4 285 kb/s
    Width                                    : 1 920 pixels
    Height                                   : 1 080 pixels
    Display aspect ratio                     : 16:9
    Frame rate mode                          : Constant
    Frame rate                               : 23.976 (24000/1001) FPS
    Color space                              : YUV
    Chroma subsampling                       : 4:2:0
    Bit depth                                : 8 bits
    Scan type                                : Progressive
    Bits/(Pixel*Frame)                       : 0.086
    Stream size                              : 3.51 GiB (65%)
    Title                                    : Luna de miel en familia (2014) Full 1080p Latino
    Writing library                          : x264 core 148 r2708 86b7198
    Encoding settings                        : cabac=1 / ref=4 / deblock=1:0:0 / analyse=0x3:0x133 / me=esa / subme=10 / psy=1 / psy_rd=1.00:0.00 / mixed_ref=1 / me_range=24 / chroma_me=1 / trellis=2 / 8x8dct=1 / cqm=0 / deadzone=21,11 / fast_pskip=1 / chroma_qp_offset=-2 / threads=34 / lookahead_threads=5 / sliced_threads=0 / nr=0 / decimate=1 / interlaced=0 / bluray_compat=0 / constrained_intra=0 / bframes=8 / b_pyramid=2 / b_adapt=2 / b_bias=0 / direct=3 / weightb=1 / open_gop=0 / weightp=2 / keyint=240 / keyint_min=24 / scenecut=40 / intra_refresh=0 / rc_lookahead=60 / rc=crf / mbtree=1 / crf=20.0 / qcomp=0.60 / qpmin=0 / qpmax=69 / qpstep=4 / vbv_maxrate=62500 / vbv_bufsize=78125 / crf_max=0.0 / nal_hrd=none / filler=0 / ip_ratio=1.40 / aq=1:1.00
    Language                                 : English
    Default                                  : Yes
    Forced                                   : No
    Color range                              : Limited
    Color primaries                          : BT.709
    Transfer characteristics                 : BT.709
    Matrix coefficients                      : BT.709
    Statistics Tags Issue                    : mkvmerge v15.0.0 ('Duel with the Devil') 64-bit 2017-11-29 04:31:14 / mkvmerge v15.0.0 ('Duel with the Devil') 64-bit 2017-11-29 04:31:14 / UTC 2017-11-29T00:51:10Z
    FromStats_BitRate                        : 4376125
    FromStats_Duration                       : 01:57:12.776000000
    FromStats_FrameCount                     : 168618
    FromStats_StreamSize                     : 3847038538

    Audio #1
    ID                                       : 2
    Format                                   : AC-3
    Format/Info                              : Audio Coding 3
    Format settings, Endianness              : Big
    Codec ID                                 : A_AC3
    Duration                                 : 1 h 57 min
    Bit rate mode                            : Constant
    Bit rate                                 : 640 kb/s
    Channel(s)                               : 6 channels
    Channel positions                        : Front: L C R, Side: L R, LFE
    Sampling rate                            : 48.0 kHz
    Frame rate                               : 31.250 FPS (1536 SPF)
    Bit depth                                : 16 bits
    Compression mode                         : Lossy
    Stream size                              : 537 MiB (10%)
    Title                                    : Latino-AC3
    Language                                 : Spanish
    Service kind                             : Complete Main
    Default                                  : Yes
    Forced                                   : Yes
    Statistics Tags Issue                    : mkvmerge v15.0.0 ('Duel with the Devil') 64-bit 2017-11-29 04:31:14 / mkvmerge v15.0.0 ('Duel with the Devil') 64-bit 2017-11-29 04:31:14 / UTC 2017-11-29T00:51:10Z
    FromStats_BitRate                        : 640000
    FromStats_Duration                       : 01:57:12.832000000
    FromStats_FrameCount                     : 219776
    FromStats_StreamSize                     : 562626560

    Audio #2
    ID                                       : 3
    Format                                   : DTS
    Format/Info                              : Digital Theater Systems
    Mode                                     : 16
    Format settings, Endianness              : Big
    Codec ID                                 : A_DTS
    Duration                                 : 1 h 57 min
    Bit rate mode                            : Constant
    Bit rate                                 : 1 509 kb/s
    Channel(s)                               : 6 channels
    Channel positions                        : Front: L C R, Side: L R, LFE
    Sampling rate                            : 48.0 kHz
    Frame rate                               : 93.750 FPS (512 SPF)
    Bit depth                                : 24 bits
    Compression mode                         : Lossy
    Stream size                              : 1.24 GiB (23%)
    Title                                    : Ingles-AC3
    Language                                 : English
    Default                                  : No
    Forced                                   : No
    Statistics Tags Issue                    : mkvmerge v15.0.0 ('Duel with the Devil') 64-bit 2017-11-29 04:31:14 / mkvmerge v15.0.0 ('Duel with the Devil') 64-bit 2017-11-29 04:31:14 / UTC 2017-11-29T00:51:10Z
    FromStats_BitRate                        : 1508999
    FromStats_Duration                       : 01:57:12.811000000
    FromStats_FrameCount                     : 659326
    FromStats_StreamSize                     : 1326563912

    Text #1
    ID                                       : 4
    Format                                   : PGS
    Muxing mode                              : zlib
    Codec ID                                 : S_HDMV/PGS
    Codec ID/Info                            : Picture based subtitle format used on BDs/HD-DVDs
    Title                                    : PGS-Forzados
    Language                                 : Spanish
    Default                                  : Yes
    Forced                                   : Yes
    Statistics Tags Issue                    : mkvmerge v15.0.0 ('Duel with the Devil') 64-bit 2017-11-29 04:31:14 / mkvmerge v15.0.0 ('Duel with the Devil') 64-bit 2017-11-29 04:31:14 / UTC 2017-11-29T00:51:10Z
    FromStats_BitRate                        : 216
    FromStats_Duration                       : 01:48:19.201000000
    FromStats_FrameCount                     : 24
    FromStats_StreamSize                     : 175790

    Text #2
    ID                                       : 5
    Format                                   : PGS
    Muxing mode                              : zlib
    Codec ID                                 : S_HDMV/PGS
    Codec ID/Info                            : Picture based subtitle format used on BDs/HD-DVDs
    Title                                    : PGS-Completos
    Language                                 : Spanish
    Default                                  : No
    Forced                                   : No
    Statistics Tags Issue                    : mkvmerge v15.0.0 ('Duel with the Devil') 64-bit 2017-11-29 04:31:14 / mkvmerge v15.0.0 ('Duel with the Devil') 64-bit 2017-11-29 04:31:14 / UTC 2017-11-29T00:51:10Z
    FromStats_BitRate                        : 37999
    FromStats_Duration                       : 01:56:39.535000000
    FromStats_FrameCount                     : 3916
    FromStats_StreamSize                     : 33247095

    Text #3
    ID                                       : 6
    Format                                   : PGS
    Muxing mode                              : zlib
    Codec ID                                 : S_HDMV/PGS
    Codec ID/Info                            : Picture based subtitle format used on BDs/HD-DVDs
    Title                                    : PGS
    Language                                 : English
    Default                                  : No
    Forced                                   : No
    Statistics Tags Issue                    : mkvmerge v15.0.0 ('Duel with the Devil') 64-bit 2017-11-29 04:31:14 / mkvmerge v15.0.0 ('Duel with the Devil') 64-bit 2017-11-29 04:31:14 / UTC 2017-11-29T00:51:10Z
    FromStats_BitRate                        : 42692
    FromStats_Duration                       : 01:56:41.286000000
    FromStats_FrameCount                     : 4116
    FromStats_StreamSize                     : 37362746

    Menu
    00:00:00.000                             : :Chapter 1
    00:10:32.715                             : :Chapter 2
    00:21:16.150                             : :Chapter 3
    00:32:56.433                             : :Chapter 4
    00:42:23.624                             : :Chapter 5
    00:49:49.195                             : :Chapter 6
    00:58:11.822                             : :Chapter 7
    01:10:44.782                             : :Chapter 8
    01:19:45.406                             : :Chapter 9
    01:33:10.293                             : :Chapter 10
    01:41:25.246                             : :Chapter 11
    01:50:36.046                             : :Chapter 12

  • Peso: 5.37 GiB

Sinopsis

Un hombre y una mujer va un resort con sus respectivas familias y no pueden ocultar su sorpresa al verse el uno al otro. Ya se conocían, había tenido una cita a ciegas hace algún tiempo, una cita cuyo resultado no había sido para nada satisfactorio. No obstante, contra todo pronóstico, la tracción que entonces no sintieron hace ahora su aparición. Pero ellos no son los únicos que se ven beneficiados por esto, sus hijos también saben sacar partido a la situación, convirtiendo la creciente relación en algo de lo que pueden sacar provecho.

Ficha técnica

Video trailer de la película

Enlaces de descarga

Rip de Bluray

Descargar Luna de miel en familia (2014) Full 1080p Latino




Aportes de DPeliculasHDmega la pass es:dpeliculashdmega.org Aportes de CinemaniaHD la pass es:cinemaniahdd.com
Guardado en : Comedia , FULL 1080p Plateadas

Películas relacionadas

  • Kin (2018) Full 1080p Latino

    2018
    Kin (2018) Full 1080p Latino

    5.0 1h 42m 2018

    Perseguidos por un criminal vengativo (James Franco) y una banda de soldados sobrenaturales,​ un exconvicto...

    Director: Josh Baker

    Género: Acción

    Actores: Zoë Kravitz

  • Los increíbles 2 (2018) Full 1080p Latino

    2018
    Los increíbles 2 (2018) Full 1080p Latino

    5.0 1h 58m 2018

    Helen tiene que liderar una campaña para que los superhéroes regresen, mientras Bob vive su vida "normal"...

    Director: Seong-Young Kim

    Género: Acción

    Actores: Usher

  • El infiltrado del KKKlan (2018) Full 1080p Latino

    2018
    El infiltrado del KKKlan (2018) Full 1080p Latino

    5.0 2h 15m 2018

    A principios de los años setenta, una época de gran agitación social con la encarnizada lucha por...

    Director: Spike Lee

    Género: Comedia

    Actores: Topher Grace

  • Locamente Millonarios (2018) 1080p Latino

    2018
    Locamente Millonarios (2018) 1080p Latino

    0.0 2h 0m 2018

    Locamente Millonarios (2018) 1080p Latino; Mega, Google Drive. Rachel Chu es profesora de economía en...

    Director: Jon M. Chu

    Género: Comedia

    Actores: Victoria Loke

  • Punto Ciego (2018) 1080p Latino

    2018
    Punto Ciego (2018) 1080p Latino

    1.0 1h 35m 2018

    Descargar Punto Ciego (2018) 1080p Latino, Mega, google Drive. Collin está en los últimos días de...

    Director: Carlos López Estrada

    Género: Comedia

    Actores: Ziggy Baitinger

Comentarios 2
  • predarex - 14 diciembre, 2017

    Gracias por el aporte!!!

  • Tio Higuera - 01 diciembre, 2017

    Gracias.