Luis Miguel: La Serie (2021) Temporada 2 NF WEB-DL 1080p Latino

55 vistas
1 estrella2 estrellas3 estrellas4 estrellas5 estrellas (1 votos, promedio: 5,00 de 5)
Cargando...

Información de Luis Miguel: La Serie (2021) Temporada 2 NF WEB-DL 1080p Latino

Datos de la película

  • Calidad: WEBDL
  • Audio: Español Latino AC3 5.1 Netflix - Ingles AC3 5.1 Netflix
  • Subtitulos: Español Latino SRT- FORZADOS SRT
  • Resolución: 1920x1080
  • Formato: MKV
  • Codec: H.264
  • Encoder: cinemaniahdd
  • Mediainfo: Clic para Mostrar Datos Ver
  • Luis Miguel T02E02 NF WEB-DL 1080p Latino [CNMNHDD].mkv
    Format                      : Matroska
    Format version              : Version 4
    File size                   : 1.14 GiB
    Duration                    : 52 min 21 s
    Overall bit rate mode       : Variable
    Overall bit rate            : 3 128 kb/s
    Movie name                  : Luis Miguel T02E02 - CinemaniaHDD.Net
    Encoded date                : UTC 2021-04-19 01:44:09
    Writing application         : mkvmerge v51.0.0 ('I Wish') 64-bit
    Writing library             : libebml v1.4.0 + libmatroska v1.6.2

    Video
    ID                          : 1
    Format                      : AVC
    Format/Info                 : Advanced Video Codec
    Format profile              : High@L4
    Format settings             : CABAC / 4 Ref Frames
    Format settings, CABAC      : Yes
    Format settings, Reference  : 4 frames
    Codec ID                    : V_MPEG4/ISO/AVC
    Duration                    : 52 min 19 s
    Bit rate mode               : Variable
    Bit rate                    : 2 359 kb/s
    Maximum bit rate            : 20.0 Mb/s
    Width                       : 1 920 pixels
    Height                      : 1 080 pixels
    Display aspect ratio        : 16:9
    Frame rate mode             : Constant
    Frame rate                  : 23.976 (24000/1001) FPS
    Color space                 : YUV
    Chroma subsampling          : 4:2:0
    Bit depth                   : 8 bits
    Scan type                   : Progressive
    Bits/(Pixel*Frame)          : 0.047
    Stream size                 : 883 MiB (75%)
    Title                       : CinemaniaHDD
    Writing library             : x264 core 148 r2722 1b0121b
    Encoding settings           : cabac=1 / ref=4 / deblock=1:0:0 / analyse=0x3:0x111 / me=umh / subme=10 / psy=1 / psy_rd=1.00:0.00 / mixed_ref=1 / me_range=120 / chroma_me=1 / trellis=2 / 8x8dct=1 / cqm=0 / deadzone=21,11 / fast_pskip=1 / chroma_qp_offset=-2 / threads=8 / lookahead_threads=2 / sliced_threads=0 / nr=0 / decimate=1 / interlaced=0 / bluray_compat=0 / stitchable=1 / constrained_intra=0 / bframes=16 / b_pyramid=2 / b_adapt=2 / b_bias=0 / direct=3 / weightb=1 / open_gop=0 / weightp=2 / keyint=240 / keyint_min=121 / scenecut=0 / intra_refresh=0 / rc_lookahead=240 / rc=crf / mbtree=1 / crf=17.0 / qcomp=0.50 / qpmin=6 / qpmax=51 / qpstep=4 / vbv_maxrate=20000 / vbv_bufsize=25000 / crf_max=0.0 / nal_hrd=vbr / filler=0 / ip_ratio=1.40 / aq=1:0.80
    Default                     : Yes
    Forced                      : No

    Audio #1
    ID                          : 2
    Format                      : AC-3
    Format/Info                 : Audio Coding 3
    Commercial name             : Dolby Digital
    Codec ID                    : A_AC3
    Duration                    : 52 min 21 s
    Bit rate mode               : Constant
    Bit rate                    : 384 kb/s
    Channel(s)                  : 6 channels
    Channel layout              : L R C LFE Ls Rs
    Sampling rate               : 48.0 kHz
    Frame rate                  : 31.250 FPS (1536 SPF)
    Compression mode            : Lossy
    Stream size                 : 144 MiB (12%)
    Title                       : Español latino [CinemaniaHDD]
    Language                    : Spanish
    Service kind                : Complete Main
    Default                     : Yes
    Forced                      : No

    Audio #2
    ID                          : 3
    Format                      : AC-3
    Format/Info                 : Audio Coding 3
    Commercial name             : Dolby Digital
    Codec ID                    : A_AC3
    Duration                    : 52 min 21 s
    Bit rate mode               : Constant
    Bit rate                    : 384 kb/s
    Channel(s)                  : 6 channels
    Channel layout              : L R C LFE Ls Rs
    Sampling rate               : 48.0 kHz
    Frame rate                  : 31.250 FPS (1536 SPF)
    Compression mode            : Lossy
    Stream size                 : 144 MiB (12%)
    Title                       : Inglés [CinemaniaHDD]
    Language                    : English
    Service kind                : Complete Main
    Default                     : No
    Forced                      : No

    Text #1
    ID                          : 4
    Format                      : UTF-8
    Codec ID                    : S_TEXT/UTF8
    Codec ID/Info               : UTF-8 Plain Text
    Duration                    : 51 min 16 s
    Bit rate                    : 6 b/s
    Count of elements           : 71
    Stream size                 : 2.45 KiB (0%)
    Title                       : Forzados [CinemaniaHDD]
    Language                    : Spanish
    Default                     : Yes
    Forced                      : Yes

    Text #2
    ID                          : 5
    Format                      : UTF-8
    Codec ID                    : S_TEXT/UTF8
    Codec ID/Info               : UTF-8 Plain Text
    Duration                    : 51 min 38 s
    Bit rate                    : 59 b/s
    Count of elements           : 708
    Stream size                 : 22.3 KiB (0%)
    Title                       : Español latino [CinemaniaHDD]
    Language                    : Spanish
    Default                     : No
    Forced                      : No

     

  • Peso: 1.14 GiB Aprox ---- 5 CAPITULOS AGREGADOS

Sinopsis

Esta serie relata la vida del cantante Luis Miguel, quien ha cautivado al público en Latinoamérica y más allá durante muchas décadas.

5 CAPITULOS AGREGADOS

Ficha técnica

  • Titulo original: Luis Miguel: La Serie
  • Fecha de lanzamiento: 22-04-2018 (MX)
  • Género: Drama, Netflix, Series
  • Puntuación: 5.0 1 votos
  • Duración:
    0h 50m

Video trailer de la película

Enlaces de descarga

Rip de Bluray

Descargar Luis Miguel: La Serie (2021) Temporada 2 NF WEB-DL 1080p Latino




Aportes de DPeliculasHDmega la pass es:dpeliculashdmega.org Aportes de CinemaniaHD la pass es:cinemaniahdd.com
Guardado en : Drama , Netflix , Series

Películas relacionadas

Luis Miguel: La Serie (2021) Temporada 2 NF WEB-DL 1080p Latino pelicula full hd, Luis Miguel: La Serie (2021) Temporada 2 NF WEB-DL 1080p Latino mega latino, Luis Miguel: La Serie (2021) Temporada 2 NF WEB-DL 1080p Latino 4k latino, Luis Miguel: La Serie (2021) Temporada 2 NF WEB-DL 1080p Latino pelicula completa, Luis Miguel: La Serie (2021) Temporada 2 NF WEB-DL 1080p Latino descargar gratis, descargar Luis Miguel: La Serie (2021) Temporada 2 NF WEB-DL 1080p Latino pelicula latino, Luis Miguel: La Serie (2021) Temporada 2 NF WEB-DL 1080p Latino 1 link mega, Luis Miguel: La Serie (2021) Temporada 2 NF WEB-DL 1080p Latino 1 link google drive, Luis Miguel: La Serie (2021) Temporada 2 NF WEB-DL 1080p Latino hd 1080p latino.
Comentarios 0