×

¿Problemas para descargar con Mozilla, EDGE? Deshabilita la opción "Abrir vinculos en una pestaña nueva" tal como lo muestra ésta imagen.

Lucky Hank (2023) Temporada 1 AMZN WEB-DL 1080p Latino

49 vistas

Información de Lucky Hank (2023) Temporada 1 AMZN WEB-DL 1080p Latino

Datos de la película

  • Calidad: 1080p
  • Audio: Español Latino AC3 2.0 WEB-DL - Ingles AC3 5.1 WEB-DL
  • Subtitulos: Español Latino SRT- FORZADOS SRT
  • Resolución: 1920x1080
  • Formato: MKV
  • Codec: H.264
  • Encoder: cinemaniahdd
  • Mediainfo: Clic para Mostrar Datos Ver
  • Lucky Hank T01E01 AMZN WEB-DL 1080p Latino [CNMNHDD].mkv
    Format                      : Matroska
    Format version              : Version 4
    File size                   : 2.88 GiB
    Duration                    : 43 min 18 s
    Overall bit rate            : 9 534 kb/s
    Movie name                  : Lucky Hank S01E01 - Pilot [1080p] - CinemaniaHDD.Net
    Encoded date                : UTC 2024-03-27 01:09:35
    Writing application         : mkvmerge v56.1.0 ('My Friend') 64-bit
    Writing library             : libebml v1.4.2 + libmatroska v1.6.4

    Video
    ID                          : 1
    Format                      : AVC
    Format/Info                 : Advanced Video Codec
    Format profile              : High@L4
    Format settings             : CABAC / 4 Ref Frames
    Format settings, CABAC      : Yes
    Format settings, Reference  : 4 frames
    Codec ID                    : V_MPEG4/ISO/AVC
    Duration                    : 43 min 18 s
    Bit rate mode               : Constant
    Bit rate                    : 8 507 kb/s
    Nominal bit rate            : 10 000 kb/s
    Width                       : 1 920 pixels
    Height                      : 1 080 pixels
    Display aspect ratio        : 16:9
    Frame rate mode             : Constant
    Frame rate                  : 23.976 (24000/1001) FPS
    Color space                 : YUV
    Chroma subsampling          : 4:2:0
    Bit depth                   : 8 bits
    Scan type                   : Progressive
    Bits/(Pixel*Frame)          : 0.171
    Stream size                 : 2.57 GiB (89%)
    Title                       : CinemaniaHDD
    Default                     : Yes
    Forced                      : No
    Color range                 : Limited
    Color primaries             : BT.709
    Transfer characteristics    : BT.709
    Matrix coefficients         : BT.709

    Audio #1
    ID                          : 2
    Format                      : AC-3
    Format/Info                 : Audio Coding 3
    Commercial name             : Dolby Digital
    Codec ID                    : A_AC3
    Duration                    : 43 min 18 s
    Bit rate mode               : Constant
    Bit rate                    : 384 kb/s
    Channel(s)                  : 2 channels
    Channel layout              : L R
    Sampling rate               : 48.0 kHz
    Frame rate                  : 31.250 FPS (1536 SPF)
    Compression mode            : Lossy
    Stream size                 : 119 MiB (4%)
    Title                       : Español Latino [CinemaniaHDD]
    Language                    : Spanish
    Service kind                : Complete Main
    Default                     : Yes
    Forced                      : No

    Audio #2
    ID                          : 3
    Format                      : E-AC-3
    Format/Info                 : Enhanced AC-3
    Commercial name             : Dolby Digital Plus
    Codec ID                    : A_EAC3
    Duration                    : 43 min 18 s
    Bit rate mode               : Constant
    Bit rate                    : 640 kb/s
    Channel(s)                  : 6 channels
    Channel layout              : L R C LFE Ls Rs
    Sampling rate               : 48.0 kHz
    Frame rate                  : 31.250 FPS (1536 SPF)
    Compression mode            : Lossy
    Stream size                 : 198 MiB (7%)
    Title                       : Inglés [CinemaniaHDD]
    Language                    : English
    Service kind                : Complete Main
    Default                     : No
    Forced                      : No

    Text #1
    ID                          : 4
    Format                      : UTF-8
    Codec ID                    : S_TEXT/UTF8
    Codec ID/Info               : UTF-8 Plain Text
    Duration                    : 39 min 42 s
    Bit rate                    : 2 b/s
    Count of elements           : 21
    Stream size                 : 623 Bytes (0%)
    Title                       : Forzados [CinemaniaHDD]
    Language                    : Spanish
    Default                     : Yes
    Forced                      : Yes

    Text #2
    ID                          : 5
    Format                      : UTF-8
    Codec ID                    : S_TEXT/UTF8
    Codec ID/Info               : UTF-8 Plain Text
    Duration                    : 42 min 4 s
    Bit rate                    : 77 b/s
    Count of elements           : 787
    Stream size                 : 23.9 KiB (0%)
    Title                       : Español Latino [CinemaniaHDD]
    Language                    : Spanish
    Default                     : No
    Forced                      : No

    Text #3
    ID                          : 6
    Format                      : UTF-8
    Codec ID                    : S_TEXT/UTF8
    Codec ID/Info               : UTF-8 Plain Text
    Duration                    : 42 min 41 s
    Bit rate                    : 91 b/s
    Count of elements           : 920
    Stream size                 : 28.6 KiB (0%)
    Title                       : Inglés [CinemaniaHDD]
    Language                    : English
    Default                     : No
    Forced                      : No

     

  • Peso: 2.88 GiB C/U --- 5 CAPÍTULOS DISPONIBLES

Sinopsis

Lucky Hank es la historia de William Henry Devereaux Jr., un profesor que se siente atrapado por la titularidad en una universidad de Pensilvania con fondos insuficientes, su esposa, y el departamento de inglés que dirige en la facultad.

5 CAPÍTULOS DISPONIBLES

Ficha técnica

Video trailer de la película

Enlaces de descarga

Rip de Bluray

Descargar Lucky Hank (2023) Temporada 1 AMZN WEB-DL 1080p Latino




Aportes de DPeliculasHDmega la pass es:dpeliculashdmega.org Aportes de CinemaniaHD la pass es:cinemaniahdd.com Aportes recientes:cinemaniahdd.net
Guardado en : Drama , Series

Películas relacionadas

descargar Lucky Hank (2023) Temporada 1 AMZN WEB-DL 1080p Latino 1080p 1080p gratis, Lucky Hank (2023) Temporada 1 AMZN WEB-DL 1080p Latino 1080p mega 1 link, Lucky Hank (2023) Temporada 1 AMZN WEB-DL 1080p Latino 1080p serie completa, descargar Lucky Hank (2023) Temporada 1 AMZN WEB-DL 1080p Latino 1080p gratis en mega.

Lucky Hank (2023) Temporada 1 AMZN WEB-DL 1080p Latino pelicula full hd, Lucky Hank (2023) Temporada 1 AMZN WEB-DL 1080p Latino mega latino, Lucky Hank (2023) Temporada 1 AMZN WEB-DL 1080p Latino 4k latino, Lucky Hank (2023) Temporada 1 AMZN WEB-DL 1080p Latino pelicula completa, Lucky Hank (2023) Temporada 1 AMZN WEB-DL 1080p Latino descargar gratis, descargar Lucky Hank (2023) Temporada 1 AMZN WEB-DL 1080p Latino pelicula latino, Lucky Hank (2023) Temporada 1 AMZN WEB-DL 1080p Latino 1 link mega, Lucky Hank (2023) Temporada 1 AMZN WEB-DL 1080p Latino 1 link google drive, Lucky Hank (2023) Temporada 1 AMZN WEB-DL 1080p Latino hd 1080p latino.
Comentarios 0