Lucifer (2017) Segunda Temporada [NF] WEB -DL 1080p Latino

298 vistas
1 estrella2 estrellas3 estrellas4 estrellas5 estrellas (1 votos, promedio: 5,00 de 5)
Cargando…

Información de Lucifer (2017) Segunda Temporada [NF] WEB -DL 1080p Latino

Datos de la película

  • Calidad: WEBDL
  • Audio: Se especifica abajo de la Sinopsis
  • Subtitulos: Español Latino SRT - Ingles SRT
  • Resolución: 1920x1080p
  • Formato: MKV
  • Codec: H.264
  • Encoder: Dracarys
  • Mediainfo: Clic para Mostrar Datos Ver
  • Format                      : Matroska
    Format version              : Version 4
    File size                   : 1.34 GiB
    Duration                    : 43 min 52 s
    Overall bit rate mode       : Variable
    Overall bit rate            : 4 366 kb/s
    Encoded date                : UTC 2019-01-24 03:54:13 / UTC 2018-03-03 09:49:54
    Writing application         : mkvmerge v11.0.0 ('Alive') 64bit
    Writing library             : libebml v1.3.4 + libmatroska v1.4.5 / Lavf58.0.0

    Video
    ID                          : 1
    Format                      : AVC
    Format/Info                 : Advanced Video Codec
    Format profile              : [email protected]
    Format settings             : CABAC / 4 Ref Frames
    Format settings, CABAC      : Yes
    Format settings, ReFrames   : 4 frames
    Codec ID                    : V_MPEG4/ISO/AVC
    Duration                    : 43 min 52 s
    Bit rate mode               : Variable
    Bit rate                    : 3 768 kb/s
    Maximum bit rate            : 20.0 Mb/s
    Width                       : 1 920 pixels
    Height                      : 1 080 pixels
    Display aspect ratio        : 16:9
    Frame rate mode             : Constant
    Frame rate                  : 23.976 (24000/1001) FPS
    Color space                 : YUV
    Chroma subsampling          : 4:2:0
    Bit depth                   : 8 bits
    Scan type                   : Progressive
    Bits/(Pixel*Frame)          : 0.076
    Stream size                 : 1.15 GiB (86%)
    Writing library             : x264 core 148
    Encoding settings           : cabac=1 / ref=4 / deblock=1:0:0 / analyse=0x3:0x111 / me=umh / subme=10 / psy=1 / psy_rd=1.00:0.00 / mixed_ref=1 / me_range=120 / chroma_me=1 / trellis=2 / 8x8dct=1 / cqm=0 / deadzone=21,11 / fast_pskip=1 / chroma_qp_offset=-2 / threads=8 / lookahead_threads=2 / sliced_threads=0 / nr=0 / decimate=1 / interlaced=0 / bluray_compat=0 / stitchable=1 / constrained_intra=0 / bframes=16 / b_pyramid=2 / b_adapt=2 / b_bias=0 / direct=3 / weightb=1 / open_gop=0 / weightp=2 / keyint=240 / keyint_min=121 / scenecut=0 / intra_refresh=0 / rc_lookahead=240 / rc=crf / mbtree=1 / crf=20.0 / qcomp=0.50 / qpmin=6 / qpmax=51 / qpstep=4 / vbv_maxrate=20000 / vbv_bufsize=25000 / crf_max=0.0 / nal_hrd=vbr / filler=0 / ip_ratio=1.40 / aq=1:0.80
    Default                     : Yes
    Forced                      : No
    Statistics Tags Issue       : mkvmerge v11.0.0 ('Alive') 64bit 2019-01-24 03:54:13 / mkvmerge v11.0.0 ('Alive') 64bit 2019-01-24 03:54:13 / UTC 2018-03-03 09:49:54
    FromStats_BitRate           : 3857900
    FromStats_Duration          : 00:43:48.710000000
    FromStats_FrameCount        : 63026
    FromStats_StreamSize        : 1267662652

    Audio #1
    ID                          : 2
    Format                      : E-AC-3
    Format/Info                 : Enhanced AC-3
    Commercial name             : Dolby Digital Plus
    Codec ID                    : A_EAC3
    Duration                    : 43 min 52 s
    Bit rate mode               : Constant
    Bit rate                    : 128 kb/s
    Channel(s)                  : 2 channels
    Channel layout              : L R
    Sampling rate               : 48.0 kHz
    Frame rate                  : 31.250 FPS (1536 SPF)
    Compression mode            : Lossy
    Stream size                 : 40.2 MiB (3%)
    Language                    : Spanish
    Service kind                : Complete Main
    Default                     : Yes
    Forced                      : No
    Encoded date                : UTC 2018-03-03 09:43:36
    Statistics Tags Issue       : mkvmerge v11.0.0 ('Alive') 64bit 2019-01-24 03:54:13 / mkvmerge v11.0.0 ('Alive') 64bit 2019-01-24 03:54:13 / UTC 2018-03-03 09:49:54
    FromStats_BitRate           : 128000
    FromStats_Duration          : 00:43:52.736000000
    FromStats_FrameCount        : 82273
    FromStats_StreamSize        : 42123776

    Audio #2
    ID                          : 3
    Format                      : AC-3
    Format/Info                 : Audio Coding 3
    Commercial name             : Dolby Digital
    Codec ID                    : A_AC3
    Duration                    : 43 min 52 s
    Bit rate mode               : Constant
    Bit rate                    : 384 kb/s
    Channel(s)                  : 6 channels
    Channel layout              : L R C LFE Ls Rs
    Sampling rate               : 48.0 kHz
    Frame rate                  : 31.250 FPS (1536 SPF)
    Bit depth                   : 16 bits
    Compression mode            : Lossy
    Stream size                 : 121 MiB (9%)
    Service kind                : Complete Main
    Default                     : No
    Forced                      : No
    Encoded date                : UTC 2018-03-03 09:49:54
    Statistics Tags Issue       : mkvmerge v11.0.0 ('Alive') 64bit 2019-01-24 03:54:13 / mkvmerge v11.0.0 ('Alive') 64bit 2019-01-24 03:54:13 / UTC 2018-03-03 09:49:54
    FromStats_BitRate           : 384000
    FromStats_Duration          : 00:43:52.736000000
    FromStats_FrameCount        : 82273
    FromStats_StreamSize        : 126371328

    Text #1
    ID                          : 4
    Format                      : UTF-8
    Codec ID                    : S_TEXT/UTF8
    Codec ID/Info               : UTF-8 Plain Text
    Title                       : English
    Language                    : English
    Default                     : No
    Forced                      : No
    Statistics Tags Issue       : mkvmerge v11.0.0 ('Alive') 64bit 2019-01-24 03:54:13 / mkvmerge v11.0.0 ('Alive') 64bit 2019-01-24 03:54:13 / UTC 2018-03-03 09:49:54
    FromStats_BitRate           : 94
    FromStats_Duration          : 00:43:13.883000000
    FromStats_FrameCount        : 869
    FromStats_StreamSize        : 30777

    Text #2
    ID                          : 5
    Format                      : UTF-8
    Codec ID                    : S_TEXT/UTF8
    Codec ID/Info               : UTF-8 Plain Text
    Title                       : Spanish
    Language                    : Spanish
    Default                     : No
    Forced                      : No
    Statistics Tags Issue       : mkvmerge v11.0.0 ('Alive') 64bit 2019-01-24 03:54:13 / mkvmerge v11.0.0 ('Alive') 64bit 2019-01-24 03:54:13 / UTC 2018-03-03 09:49:54
    FromStats_BitRate           : 88
    FromStats_Duration          : 00:43:47.666000000
    FromStats_FrameCount        : 794
    FromStats_StreamSize        : 28908

     

  • Peso: 1.80 GiB X capitulo Aproximadamente

Sinopsis

Mientras Lucifer ayuda a Chloe con un caso de asesinato en el que participa una actriz adolescente popular (Jessica Sula), se convence de que el alma de su madre está ocupando el cuerpo del asesino para atormentarlo. Lucifer cuenta a la Doctora Martin la historia de cómo la unión de su padre y su madre creó el universo, pero su madre fue finalmente desterrada al infierno para siempre. Chloe le dice a Lucifer que tiene algo de su sangre del tiroteo y planea examinarla para demostrar o refutar sus afirmaciones de ser el diablo. Cuando Amenadiel se entera de esto, compone una historia para Chloe que interpreta a Lucifer como delirante, pero humano. Como Lucifer, Amenadiel comienza a mostrar signos de perder sus poderes angélicos en la Tierra. Dan es reintegrado a la policía, pero es degradado. Maze también regresa de su ausencia, diciendo que fue a ver a una amiga y quiere averiguar cómo encaja en este mundo. Al final del episodio, la madre de Lucifer (Tricia Helfer) aparece en su puerta, buscando ayuda.

 

Latino: E-AC3 2.0  –  Ingles: AC3 5.1

Ficha técnica

Video trailer de la película

Enlaces de descarga

Rip de Bluray

Descargar Lucifer (2017) Segunda Temporada [NF] WEB -DL 1080p Latino




Aportes de DPeliculasHDmega la pass es:dpeliculashdmega.org Aportes de CinemaniaHD la pass es:cinemaniahdd.com
Guardado en : Crimen , Sci-Fi & Fantasy , Series

Películas relacionadas

Comentarios 0