Lucifer (2015) Primera Temporada [NF] WEB -DL 1080p Latino

492 vistas
1 estrella2 estrellas3 estrellas4 estrellas5 estrellas (1 votos, promedio: 5,00 de 5)
Cargando…

Información de Lucifer (2015) Primera Temporada [NF] WEB -DL 1080p Latino

Datos de la película

  • Calidad: WEBDL
  • Audio: Se especifica abajo de la Sinopsis
  • Subtitulos: Español Latino SRT - Ingles SRT
  • Resolución: 1920x1080p
  • Formato: MKV
  • Codec: H.264
  • Encoder: Dracarys
  • Mediainfo: Clic para Mostrar Datos Ver
  • Format                      : Matroska
    Format version              : Version 4
    File size                   : 1.56 GiB
    Duration                    : 44 min 51 s
    Overall bit rate mode       : Variable
    Overall bit rate            : 4 967 kb/s
    Encoded date                : UTC 2019-01-24 03:52:41 / UTC 2017-11-02 23:30:50
    Writing application         : mkvmerge v11.0.0 ('Alive') 64bit
    Writing library             : libebml v1.3.4 + libmatroska v1.4.5 / Lavf58.0.0

    Video
    ID                          : 1
    Format                      : AVC
    Format/Info                 : Advanced Video Codec
    Format profile              : [email protected]
    Format settings             : CABAC / 4 Ref Frames
    Format settings, CABAC      : Yes
    Format settings, ReFrames   : 4 frames
    Codec ID                    : V_MPEG4/ISO/AVC
    Duration                    : 44 min 51 s
    Bit rate mode               : Variable
    Bit rate                    : 4 356 kb/s
    Maximum bit rate            : 20.0 Mb/s
    Width                       : 1 920 pixels
    Height                      : 1 080 pixels
    Display aspect ratio        : 16:9
    Frame rate mode             : Constant
    Frame rate                  : 23.976 (24000/1001) FPS
    Color space                 : YUV
    Chroma subsampling          : 4:2:0
    Bit depth                   : 8 bits
    Scan type                   : Progressive
    Bits/(Pixel*Frame)          : 0.088
    Stream size                 : 1.36 GiB (88%)
    Writing library             : x264 core 148
    Encoding settings           : cabac=1 / ref=4 / deblock=1:0:0 / analyse=0x3:0x111 / me=umh / subme=10 / psy=1 / psy_rd=1.00:0.00 / mixed_ref=1 / me_range=120 / chroma_me=1 / trellis=2 / 8x8dct=1 / cqm=0 / deadzone=21,11 / fast_pskip=1 / chroma_qp_offset=-2 / threads=8 / lookahead_threads=2 / sliced_threads=0 / nr=0 / decimate=1 / interlaced=0 / bluray_compat=0 / stitchable=1 / constrained_intra=0 / bframes=16 / b_pyramid=2 / b_adapt=2 / b_bias=0 / direct=3 / weightb=1 / open_gop=0 / weightp=2 / keyint=240 / keyint_min=121 / scenecut=0 / intra_refresh=0 / rc_lookahead=240 / rc=crf / mbtree=1 / crf=24.0 / qcomp=0.50 / qpmin=6 / qpmax=51 / qpstep=4 / vbv_maxrate=20000 / vbv_bufsize=25000 / crf_max=0.0 / nal_hrd=vbr / filler=0 / ip_ratio=1.40 / aq=1:0.80
    Default                     : Yes
    Forced                      : No
    Statistics Tags Issue       : mkvmerge v11.0.0 ('Alive') 64bit 2019-01-24 03:52:41 / mkvmerge v11.0.0 ('Alive') 64bit 2019-01-24 03:52:41 / UTC 2017-11-02 23:30:50
    FromStats_BitRate           : 4457222
    FromStats_Duration          : 00:44:48.394000000
    FromStats_FrameCount        : 64457
    FromStats_StreamSize        : 1497846233

    Audio #1
    ID                          : 2
    Format                      : E-AC-3
    Format/Info                 : Enhanced AC-3
    Commercial name             : Dolby Digital Plus
    Codec ID                    : A_EAC3
    Duration                    : 44 min 51 s
    Bit rate mode               : Constant
    Bit rate                    : 128 kb/s
    Channel(s)                  : 2 channels
    Channel layout              : L R
    Sampling rate               : 48.0 kHz
    Frame rate                  : 31.250 FPS (1536 SPF)
    Compression mode            : Lossy
    Stream size                 : 41.1 MiB (3%)
    Language                    : Spanish
    Service kind                : Complete Main
    Default                     : Yes
    Forced                      : No
    Encoded date                : UTC 2017-11-02 23:30:44
    Statistics Tags Issue       : mkvmerge v11.0.0 ('Alive') 64bit 2019-01-24 03:52:41 / mkvmerge v11.0.0 ('Alive') 64bit 2019-01-24 03:52:41 / UTC 2017-11-02 23:30:50
    FromStats_BitRate           : 128000
    FromStats_Duration          : 00:44:50.848000000
    FromStats_FrameCount        : 84089
    FromStats_StreamSize        : 43053568

    Audio #2
    ID                          : 3
    Format                      : AC-3
    Format/Info                 : Audio Coding 3
    Commercial name             : Dolby Digital
    Codec ID                    : A_AC3
    Duration                    : 44 min 51 s
    Bit rate mode               : Constant
    Bit rate                    : 384 kb/s
    Channel(s)                  : 6 channels
    Channel layout              : L R C LFE Ls Rs
    Sampling rate               : 48.0 kHz
    Frame rate                  : 31.250 FPS (1536 SPF)
    Bit depth                   : 16 bits
    Compression mode            : Lossy
    Stream size                 : 123 MiB (8%)
    Service kind                : Complete Main
    Default                     : No
    Forced                      : No
    Encoded date                : UTC 2017-11-02 23:30:50
    Statistics Tags Issue       : mkvmerge v11.0.0 ('Alive') 64bit 2019-01-24 03:52:41 / mkvmerge v11.0.0 ('Alive') 64bit 2019-01-24 03:52:41 / UTC 2017-11-02 23:30:50
    FromStats_BitRate           : 384000
    FromStats_Duration          : 00:44:51.104000000
    FromStats_FrameCount        : 84097
    FromStats_StreamSize        : 129172992

    Text #1
    ID                          : 4
    Format                      : UTF-8
    Codec ID                    : S_TEXT/UTF8
    Codec ID/Info               : UTF-8 Plain Text
    Title                       : English
    Language                    : English
    Default                     : No
    Forced                      : No
    Statistics Tags Issue       : mkvmerge v11.0.0 ('Alive') 64bit 2019-01-24 03:52:41 / mkvmerge v11.0.0 ('Alive') 64bit 2019-01-24 03:52:41 / UTC 2017-11-02 23:30:50
    FromStats_BitRate           : 102
    FromStats_Duration          : 00:44:05.977000000
    FromStats_FrameCount        : 1120
    FromStats_StreamSize        : 33921

    Text #2
    ID                          : 5
    Format                      : UTF-8
    Codec ID                    : S_TEXT/UTF8
    Codec ID/Info               : UTF-8 Plain Text
    Title                       : Spanish
    Language                    : Spanish
    Default                     : No
    Forced                      : No
    Statistics Tags Issue       : mkvmerge v11.0.0 ('Alive') 64bit 2019-01-24 03:52:41 / mkvmerge v11.0.0 ('Alive') 64bit 2019-01-24 03:52:41 / UTC 2017-11-02 23:30:50
    FromStats_BitRate           : 83
    FromStats_Duration          : 00:44:47.309000000
    FromStats_FrameCount        : 796
    FromStats_StreamSize        : 28187

     

  • Peso: 1.40 GiB X capitulo Aproximadamente

Sinopsis

El asesinato de una joven estrella del pop en ‘Lux’, local de Lucifer, atrae la atención de la detective Chloe Dancer. Ella queda sorprendida al ver la habilidad de Lucifer para dibujar los secretos de la gente y su deseo de hacer justicia castigando a quienes lo merecen. Trabajar juntos les sienta bien a los dos y sacan lo mejor de cada uno. El emisario de Dios, el ángel Amenadiel, ha sido enviado a Los Ángeles para convencer a Lucifer de volver a los bajos fondos

 

Latino: E-AC3 2.0  –  Ingles: AC3 5.1

Ficha técnica

Video trailer de la película

Enlaces de descarga

Rip de Bluray

Descargar Lucifer (2015) Primera Temporada [NF] WEB -DL 1080p Latino




Aportes de DPeliculasHDmega la pass es:dpeliculashdmega.org Aportes de CinemaniaHD la pass es:cinemaniahdd.com
Guardado en : Crimen , Sci-Fi & Fantasy , Series

Películas relacionadas

Comentarios 0