Lucifer (2019) Cuarta Temporada [NF] WEB -DL 1080p Latino

1.631 vistas
1 estrella2 estrellas3 estrellas4 estrellas5 estrellas (12 votos, promedio: 3,50 de 5)
Cargando…

Información de Lucifer (2019) Cuarta Temporada [NF] WEB -DL 1080p Latino

Datos de la película

  • Calidad: WEBDL
  • Audio: Español Latino AC3 5.1 Netflix - Ingles AC3 5.1 Netflix
  • Subtitulos: Español Latino SRT- FORZADOS SRT
  • Resolución: 1920x1080
  • Formato: MKV
  • Codec: H.264
  • Encoder: Dracarys
  • Mediainfo: Clic para Mostrar Datos Ver
  • Lucifer S04E01.mkv
    Format                      : Matroska
    Format version              : Version 4
    File size                   : 1.75 GiB
    Duration                    : 48 min 41 s
    Overall bit rate mode       : Variable
    Overall bit rate            : 5 144 kb/s
    Movie name                  : Lucifer S04E01
    Encoded date                : UTC 2019-05-08 13:54:14 / UTC 2019-04-16 14:29:55
    Writing application         : mkvmerge v11.0.0 ('Alive') 64bit
    Writing library             : libebml v1.3.4 + libmatroska v1.4.5 / Lavf58.0.0

    Video
    ID                          : 1
    Format                      : AVC
    Format/Info                 : Advanced Video Codec
    Format profile              : Main@L4
    Format settings             : CABAC / 3 Ref Frames
    Format settings, CABAC      : Yes
    Format settings, ReFrames   : 3 frames
    Codec ID                    : V_MPEG4/ISO/AVC
    Duration                    : 48 min 41 s
    Bit rate mode               : Variable
    Bit rate                    : 4 420 kb/s
    Maximum bit rate            : 6 630 kb/s
    Width                       : 1 920 pixels
    Height                      : 1 080 pixels
    Display aspect ratio        : 16:9
    Frame rate mode             : Constant
    Frame rate                  : 23.976 (24000/1001) FPS
    Color space                 : YUV
    Chroma subsampling          : 4:2:0
    Bit depth                   : 8 bits
    Scan type                   : Progressive
    Bits/(Pixel*Frame)          : 0.089
    Stream size                 : 1.45 GiB (83%)
    Title                       : CinemaniaHDD
    Writing library             : x264 core 148 r2715 7e75228
    Encoding settings           : cabac=1 / ref=3 / deblock=1:0:0 / analyse=0x1:0x111 / me=umh / subme=10 / psy=1 / psy_rd=1.00:0.00 / mixed_ref=1 / me_range=24 / chroma_me=1 / trellis=2 / 8x8dct=0 / cqm=0 / deadzone=21,11 / fast_pskip=1 / chroma_qp_offset=-2 / threads=8 / lookahead_threads=1 / sliced_threads=0 / nr=0 / decimate=1 / interlaced=0 / bluray_compat=0 / stitchable=1 / constrained_intra=0 / bframes=2 / b_pyramid=0 / b_adapt=2 / b_bias=0 / direct=3 / weightb=1 / open_gop=0 / weightp=2 / keyint=48 / keyint_min=25 / scenecut=0 / intra_refresh=0 / rc_lookahead=48 / rc=2pass / mbtree=1 / bitrate=4420 / ratetol=1.0 / qcomp=0.50 / qpmin=6 / qpmax=51 / qpstep=4 / cplxblur=20.0 / qblur=0.5 / vbv_maxrate=6630 / vbv_bufsize=8840 / nal_hrd=vbr / filler=0 / ip_ratio=1.40 / aq=1:1.00
    Default                     : Yes
    Forced                      : No
    Statistics Tags Issue       : mkvmerge v11.0.0 ('Alive') 64bit 2019-05-08 13:54:14 / mkvmerge v11.0.0 ('Alive') 64bit 2019-05-08 13:54:14 / UTC 2019-04-16 14:29:55
    FromStats_BitRate           : 4373978
    FromStats_Duration          : 00:48:41.335000000
    FromStats_FrameCount        : 70042
    FromStats_StreamSize        : 1597232183

    Audio #1
    ID                          : 2
    Format                      : AC-3
    Format/Info                 : Audio Coding 3
    Commercial name             : Dolby Digital
    Codec ID                    : A_AC3
    Duration                    : 48 min 41 s
    Bit rate mode               : Constant
    Bit rate                    : 384 kb/s
    Channel(s)                  : 6 channels
    Channel layout              : L R C LFE Ls Rs
    Sampling rate               : 48.0 kHz
    Frame rate                  : 31.250 FPS (1536 SPF)
    Bit depth                   : 16 bits
    Compression mode            : Lossy
    Stream size                 : 134 MiB (7%)
    Title                       : Español latino [CinemaniaHDD]
    Language                    : Spanish
    Service kind                : Complete Main
    Default                     : Yes
    Forced                      : No
    Encoded date                : UTC 2019-04-16 14:29:51
    Statistics Tags Issue       : mkvmerge v11.0.0 ('Alive') 64bit 2019-05-08 13:54:14 / mkvmerge v11.0.0 ('Alive') 64bit 2019-05-08 13:54:14 / UTC 2019-04-16 14:29:55
    FromStats_BitRate           : 384000
    FromStats_Duration          : 00:48:41.504000000
    FromStats_FrameCount        : 91297
    FromStats_StreamSize        : 140232192

    Audio #2
    ID                          : 3
    Format                      : AC-3
    Format/Info                 : Audio Coding 3
    Commercial name             : Dolby Digital
    Codec ID                    : A_AC3
    Duration                    : 48 min 41 s
    Bit rate mode               : Constant
    Bit rate                    : 384 kb/s
    Channel(s)                  : 6 channels
    Channel layout              : L R C LFE Ls Rs
    Sampling rate               : 48.0 kHz
    Frame rate                  : 31.250 FPS (1536 SPF)
    Bit depth                   : 16 bits
    Compression mode            : Lossy
    Stream size                 : 134 MiB (7%)
    Title                       : Inglés [CinemaniaHDD]
    Language                    : English
    Service kind                : Complete Main
    Default                     : No
    Forced                      : No
    Encoded date                : UTC 2019-04-16 14:29:55
    Statistics Tags Issue       : mkvmerge v11.0.0 ('Alive') 64bit 2019-05-08 13:54:14 / mkvmerge v11.0.0 ('Alive') 64bit 2019-05-08 13:54:14 / UTC 2019-04-16 14:29:55
    FromStats_BitRate           : 384000
    FromStats_Duration          : 00:48:41.504000000
    FromStats_FrameCount        : 91297
    FromStats_StreamSize        : 140232192

    Text
    ID                          : 4
    Format                      : UTF-8
    Codec ID                    : S_TEXT/UTF8
    Codec ID/Info               : UTF-8 Plain Text
    Title                       : Español latino Forzados [CinemaniaHDD]
    Language                    : Spanish
    Default                     : Yes
    Forced                      : Yes
    Statistics Tags Issue       : mkvmerge v11.0.0 ('Alive') 64bit 2019-05-08 13:54:14 / mkvmerge v11.0.0 ('Alive') 64bit 2019-05-08 13:54:14 / UTC 2019-04-16 14:29:55
    FromStats_BitRate           : 0
    FromStats_Duration          : 00:47:51.577000000
    FromStats_FrameCount        : 6
    FromStats_StreamSize        : 162

  • Peso: 17 GB

Sinopsis

La historia de Lucifer es la que todos conocemos: un ángel caído del cielo. Sin embargo, este señor del infierno está aburrido de su propia existencia. Por ello, Lucifer decide abandonar su reino e ir a la ciudad de Los Ángeles a descubrir qué puede ofrecerle el mundo mortal.

En su búsqueda de «qué hacer con su tiempo» decide abrir un distinguido club nocturno, llamado Lux, y se dedica a disfrutar de sus cosas favoritas: el vino, las mujeres y la música. Sin embargo, su apacible vida se ve alterada cuando una mujer es brutalmente asesinada cerca de su club. De repente, siente que debe hacerse justicia y por ello comienza a ayudar a la policía a intentar resolver diversos casos de homicidios, convirtiéndose así en una especie de colaborador.

Ficha técnica

Video trailer de la película

Enlaces de descarga

Rip de Bluray

Descargar Lucifer (2019) Cuarta Temporada [NF] WEB -DL 1080p Latino




Aportes de DPeliculasHDmega la pass es:dpeliculashdmega.org Aportes de CinemaniaHD la pass es:cinemaniahdd.com
Guardado en : Crimen , Sci-Fi & Fantasy , Series

Películas relacionadas

  • Batwoman (2019) Temporada 1 WEB-DL 1080p Latino

    Batwoman (2019) Temporada 1 WEB-DL 1080p Latino

    2019
    Batwoman (2019) Temporada 1 WEB-DL 1080p Latino

    4.4 0h 42m 2019

    Batwoman es una ficción que se centra en el personaje de Kate Kane, una mujer con pasión por la justicia...

    Director: Greg Berlanti

    Género: Action & Adventure

    Actores: Ruby Rose

  • Hanna (2019) Temporada 1 AMZN WEB-DL 1080p Latino

    Hanna (2019) Temporada 1 AMZN WEB-DL 1080p Latino

    2019
    Hanna (2019) Temporada 1 AMZN WEB-DL 1080p Latino

    5.0 0h 50m 2019

    Este thriller y el drama de la mayoría de edad sigue el viaje de una joven extraordinaria mientras evade...

    Director: David Farr

    Género: Action & Adventure

    Actores: Rhianne Barreto

Comentarios 0