×

¿Problemas para descargar con Mozilla, EDGE? Deshabilita la opción "Abrir vinculos en una pestaña nueva" tal como lo muestra ésta imagen.

Luce (2019) WEB-DL 1080p Latino

904 vistas

Información de Luce (2019) WEB-DL 1080p Latino

Datos de la película

  • Calidad: WEBDL
  • Audio: Español Latino AC3 2.0 WEB-DL - Ingles AC3 5.1 WEB-DL
  • Subtitulos: Español Latino SRT- FORZADOS SRT
  • Resolución: 1916x798
  • Formato: MKV
  • Codec: H.264
  • Encoder: cinemaniahdd
  • Mediainfo: Clic para Mostrar Datos Ver
  • Luce (2019) WEB-DL 1080p Latino.mkv
    Format                      : Matroska
    Format version              : Version 4
    File size                   : 4.05 GiB
    Duration                    : 1 h 50 min
    Overall bit rate            : 5 272 kb/s
    Movie name                  : Luce (2019) - CinemaniaHDD.Net
    Encoded date                : UTC 2020-03-07 02:13:18
    Writing application         : mkvmerge v42.0.0 ('Overtime') 64-bit
    Writing library             : libebml v1.3.10 + libmatroska v1.5.2

    Video
    ID                          : 1
    Format                      : AVC
    Format/Info                 : Advanced Video Codec
    Format profile              : High@L4
    Format settings             : CABAC / 5 Ref Frames
    Format settings, CABAC      : Yes
    Format settings, ReFrames   : 5 frames
    Codec ID                    : V_MPEG4/ISO/AVC
    Duration                    : 1 h 50 min
    Bit rate                    : 4 629 kb/s
    Width                       : 1 916 pixels
    Height                      : 798 pixels
    Display aspect ratio        : 2.40:1
    Frame rate mode             : Constant
    Frame rate                  : 23.976 FPS
    Color space                 : YUV
    Chroma subsampling          : 4:2:0
    Bit depth                   : 8 bits
    Scan type                   : Progressive
    Bits/(Pixel*Frame)          : 0.126
    Stream size                 : 3.56 GiB (88%)
    Title                       : CinemaniaHDD
    Language                    : English
    Default                     : Yes
    Forced                      : No
    Color range                 : Limited
    Color primaries             : BT.709
    Transfer characteristics    : BT.709
    Matrix coefficients         : BT.709

    Audio #1
    ID                          : 2
    Format                      : AC-3
    Format/Info                 : Audio Coding 3
    Commercial name             : Dolby Digital
    Codec ID                    : A_AC3
    Duration                    : 1 h 50 min
    Bit rate mode               : Constant
    Bit rate                    : 256 kb/s
    Channel(s)                  : 2 channels
    Channel layout              : L R
    Sampling rate               : 48.0 kHz
    Frame rate                  : 31.250 FPS (1536 SPF)
    Bit depth                   : 16 bits
    Compression mode            : Lossy
    Delay relative to video     : -42 ms
    Stream size                 : 201 MiB (5%)
    Title                       : Español latino [CinemaniaHDD]
    Language                    : Spanish
    Service kind                : Complete Main
    Default                     : Yes
    Forced                      : No

    Audio #2
    ID                          : 3
    Format                      : AC-3
    Format/Info                 : Audio Coding 3
    Commercial name             : Dolby Digital
    Codec ID                    : A_AC3
    Duration                    : 1 h 50 min
    Bit rate mode               : Constant
    Bit rate                    : 384 kb/s
    Channel(s)                  : 6 channels
    Channel layout              : L R C LFE Ls Rs
    Sampling rate               : 48.0 kHz
    Frame rate                  : 31.250 FPS (1536 SPF)
    Bit depth                   : 16 bits
    Compression mode            : Lossy
    Delay relative to video     : -42 ms
    Stream size                 : 302 MiB (7%)
    Title                       : Inglés [CinemaniaHDD]
    Language                    : English
    Service kind                : Complete Main
    Default                     : No
    Forced                      : No

    Text #1
    ID                          : 4
    Format                      : UTF-8
    Codec ID                    : S_TEXT/UTF8
    Codec ID/Info               : UTF-8 Plain Text
    Duration                    : 1 h 5 min
    Bit rate                    : 1 b/s
    Count of elements           : 18
    Stream size                 : 596 Bytes (0%)
    Title                       : Forzados [CinemaniaHDD]
    Language                    : Spanish
    Default                     : Yes
    Forced                      : Yes

    Text #2
    ID                          : 5
    Format                      : UTF-8
    Codec ID                    : S_TEXT/UTF8
    Codec ID/Info               : UTF-8 Plain Text
    Duration                    : 1 h 42 min
    Bit rate                    : 70 b/s
    Count of elements           : 1636
    Stream size                 : 53.1 KiB (0%)
    Title                       : Español latino [CinemaniaHDD]
    Language                    : Spanish
    Default                     : No
    Forced                      : No

    Text #3
    ID                          : 6
    Format                      : UTF-8
    Codec ID                    : S_TEXT/UTF8
    Codec ID/Info               : UTF-8 Plain Text
    Duration                    : 1 h 44 min
    Bit rate                    : 101 b/s
    Count of elements           : 1878
    Stream size                 : 77.7 KiB (0%)
    Title                       : Inglés [CinemaniaHDD]
    Language                    : English
    Default                     : No
    Forced                      : No

    Menu
    00:00:00.000                : en:1
    00:05:58.817                : en:2
    00:15:23.756                : en:3
    00:22:12.164                : en:4
    00:31:51.451                : en:5
    00:39:23.443                : en:6
    00:46:02.425                : en:7
    00:53:26.285                : en:8
    01:01:18.172                : en:9
    01:09:06.389                : en:10
    01:17:45.282                : en:11
    01:25:05.680                : en:12
    01:31:38.655                : en:13
    01:38:28.481                : en:14
    01:45:33.531                : en:15

     

  • Peso: 4.05 GiB

Sinopsis

Han pasado diez años desde que Amy y Peter Edgar adoptasen un niño procedente de la guerra de Eritrea, donde tuvo lugar una cruenta guerra civil. Luce Edgar se ha convertido en un estudiante modelo al que todo el mundo adora dentro de su comunidad en Arlington, Virginia. Una de sus profesoras, Harriet Wilson, está convencida de que Luce se convertirá en un símbolo de la excelencia negra, un referente para sus compañeros y para la gente que le rodea. Sin embargo, Harriet descubre una alarmante actitud social con respecto a la violencia política en una de las redacciones que pide para el instituto, lo que hace temer que Luce esconde mucho más de lo que aparenta. Sus peores sospechas se confirman tras abrir su taquilla personal, donde encuentra algo que hace encender todas las alarmas.

Ficha técnica

Video trailer de la película

Enlaces de descarga

Rip de Bluray

Descargar Luce (2019) WEB-DL 1080p Latino




Aportes de DPeliculasHDmega la pass es:dpeliculashdmega.org Aportes de CinemaniaHD la pass es:cinemaniahdd.com
Guardado en : Drama , Suspenso

Películas relacionadas

  • Mar de sangre (2022) WEB-DL 1080p Latino

    Mar de sangre (2022) WEB-DL 1080p Latino

    2022
    Mar de sangre (2022) WEB-DL 1080p Latino

    1h 27m 2022

    Descargar Mar de sangre (2022) WEB-DL 1080p Latino. Un grupo de amigos que disfrutan de un fin de semana...

    Director: James Nunn

    Género: Acción

    Actores: Thomas Michael Flynn

  • Noche sin paz (2022) PLACEBO Full HD 1080p Latino

    Noche sin paz (2022) PLACEBO Full HD 1080p Latino

    2022
    Noche sin paz (2022) PLACEBO Full HD 1080p Latino

    1h 41m 2022

    Descargar Noche sin paz (2022) PLACEBO Full HD 1080p Latino. Cuando un equipo de mercenarios irrumpe...

    Director: Tyshana Hobson

    Género: Acción

    Actores: Yoon Cha-Lee

  • Noche sin paz (2022) HD 1080p Latino

    Noche sin paz (2022) HD 1080p Latino

    2022
    Noche sin paz (2022) HD 1080p Latino

    1h 41m 2022

    Descargar Noche sin paz (2022) HD 1080p Latino. Cuando un equipo de mercenarios irrumpe en Nochebuena...

    Director: Tyshana Hobson

    Género: Acción

    Actores: Yoon Cha-Lee

descargar Luce (2019) WEB-DL 1080p Latino WEBDL 1080p gratis, Luce (2019) WEB-DL 1080p Latino WEBDL mega 1 link, Luce (2019) WEB-DL 1080p Latino WEBDL pelicula completa, descargar Luce (2019) WEB-DL 1080p Latino WEBDL gratis en mega.

Luce (2019) WEB-DL 1080p Latino pelicula full hd, Luce (2019) WEB-DL 1080p Latino mega latino, Luce (2019) WEB-DL 1080p Latino 4k latino, Luce (2019) WEB-DL 1080p Latino pelicula completa, Luce (2019) WEB-DL 1080p Latino descargar gratis, descargar Luce (2019) WEB-DL 1080p Latino pelicula latino, Luce (2019) WEB-DL 1080p Latino 1 link mega, Luce (2019) WEB-DL 1080p Latino 1 link google drive, Luce (2019) WEB-DL 1080p Latino hd 1080p latino.
Comentarios 0