×

¿Problemas para descargar con Mozilla, EDGE? Deshabilita la opción "Abrir vinculos en una pestaña nueva" tal como lo muestra ésta imagen.

Luca (2021) REMUX 4K HDR Latino – CMHDD

217 vistas

Información de Luca (2021) REMUX 4K HDR Latino – CMHDD

Datos de la película

  • Calidad: 4K HDR
  • Audio: Se especifica abajo de la Sinopsis
  • Subtitulos: Español Latino PGS
  • Resolución: 3840x2160p
  • Formato: MKV
  • Codec: HEVC
  • Encoder: Dracarys
  • Mediainfo: Clic para Mostrar Datos Ver
  • Format                      : Matroska
    Format version              : Version 4
    File size                   : 40.6 GiB
    Duration                    : 1 h 35 min
    Overall bit rate mode       : Variable
    Overall bit rate            : 61.0 Mb/s
    Movie name                  : Luca (2021) REMUX 4K HDR Latino - CMHDD
    Encoded date                : UTC 2021-07-31 00:54:36
    Writing application         : mkvmerge v56.1.0 ('My Friend') 64-bit
    Writing library             : libebml v1.4.2 + libmatroska v1.6.4
    Cover                       : Yes
    Attachments                 : cover.jpg

    Video
    ID                          : 1
    Format                      : HEVC
    Format/Info                 : High Efficiency Video Coding
    Format profile              : Main 10@L5.1@High
    HDR format                  : SMPTE ST 2086, HDR10 compatible
    Codec ID                    : V_MPEGH/ISO/HEVC
    Duration                    : 1 h 35 min
    Bit rate                    : 52.2 Mb/s
    Width                       : 3 840 pixels
    Height                      : 2 160 pixels
    Display aspect ratio        : 16:9
    Frame rate mode             : Constant
    Frame rate                  : 23.976 (23976/1000) FPS
    Original frame rate         : 23.976 (24000/1001) FPS
    Color space                 : YUV
    Chroma subsampling          : 4:2:0 (Type 2)
    Bit depth                   : 10 bits
    Bits/(Pixel*Frame)          : 0.262
    Stream size                 : 34.7 GiB (86%)
    Writing library             : ATEME Titan File 3.9.6 (4.9.6.2)        
    Default                     : Yes
    Forced                      : No
    Color range                 : Limited
    Color primaries             : BT.2020
    Transfer characteristics    : PQ
    Matrix coefficients         : BT.2020 non-constant
    Mastering display color pri : BT.2020
    Mastering display luminance : min: 0.0001 cd/m2, max: 1000 cd/m2

    Audio #1
    ID                          : 2
    Format                      : MLP FBA 16-ch
    Format/Info                 : Meridian Lossless Packing FBA with 16-channel presentation
    Commercial name             : Dolby TrueHD with Dolby Atmos
    Codec ID                    : A_TRUEHD
    Duration                    : 1 h 35 min
    Bit rate mode               : Variable
    Bit rate                    : 6 070 kb/s
    Maximum bit rate            : 5 985 kb/s
    Channel(s)                  : 8 channels
    Channel layout              : L R C LFE Ls Rs Lb Rb
    Sampling rate               : 48.0 kHz
    Frame rate                  : 1 200.000 FPS (40 SPF)
    Compression mode            : Lossless
    Stream size                 : 4.04 GiB (10%)
    Language                    : English
    Default                     : No
    Forced                      : No
    Number of dynamic objects   : 13
    Bed channel count           : 1 channel
    Bed channel configuration   : LFE

    Audio #2
    ID                          : 3
    Format                      : AC-3
    Format/Info                 : Audio Coding 3
    Commercial name             : Dolby Digital
    Codec ID                    : A_AC3
    Duration                    : 1 h 35 min
    Bit rate mode               : Constant
    Bit rate                    : 640 kb/s
    Channel(s)                  : 6 channels
    Channel layout              : L R C LFE Ls Rs
    Sampling rate               : 48.0 kHz
    Frame rate                  : 31.250 FPS (1536 SPF)
    Compression mode            : Lossy
    Stream size                 : 436 MiB (1%)
    Language                    : English
    Service kind                : Complete Main
    Default                     : No
    Forced                      : No

    Audio #3
    ID                          : 4
    Format                      : E-AC-3
    Format/Info                 : Enhanced AC-3
    Commercial name             : Dolby Digital Plus
    Format profile              : Blu-ray Disc
    Codec ID                    : A_EAC3
    Duration                    : 1 h 35 min
    Bit rate mode               : Constant
    Bit rate                    : 1 024 kb/s
    Channel(s)                  : 8 channels
    Channel layout              : L R C LFE Ls Rs Lb Rb
    Sampling rate               : 48.0 kHz
    Frame rate                  : 31.250 FPS (1536 SPF)
    Compression mode            : Lossy
    Stream size                 : 698 MiB (2%)
    Language                    : English
    Service kind                : Complete Main
    Default                     : No
    Forced                      : No

    Audio #4
    ID                          : 5
    Format                      : E-AC-3
    Format/Info                 : Enhanced AC-3
    Commercial name             : Dolby Digital Plus
    Format profile              : Blu-ray Disc
    Codec ID                    : A_EAC3
    Duration                    : 1 h 35 min
    Bit rate mode               : Constant
    Bit rate                    : 1 024 kb/s
    Channel(s)                  : 8 channels
    Channel layout              : L R C LFE Ls Rs Lb Rb
    Sampling rate               : 48.0 kHz
    Frame rate                  : 31.250 FPS (1536 SPF)
    Compression mode            : Lossy
    Stream size                 : 698 MiB (2%)
    Language                    : Spanish
    Service kind                : Complete Main
    Default                     : Yes
    Forced                      : No

    Text
    ID                          : 6
    Format                      : PGS
    Muxing mode                 : zlib
    Codec ID                    : S_HDMV/PGS
    Codec ID/Info               : Picture based subtitle format used on BDs/HD-DVDs
    Duration                    : 1 h 34 min
    Bit rate                    : 34.7 kb/s
    Count of elements           : 2610
    Stream size                 : 23.4 MiB (0%)
    Language                    : Spanish
    Default                     : No
    Forced                      : No

    Menu
    00:00:00.000                : Chapter 01
    00:02:27.897                : Chapter 02
    00:06:27.220                : Chapter 03
    00:08:29.884                : Chapter 04
    00:11:19.512                : Chapter 05
    00:14:35.291                : Chapter 06
    00:16:30.197                : Chapter 07
    00:17:07.734                : Chapter 08
    00:21:19.486                : Chapter 09
    00:23:31.993                : Chapter 10
    00:26:01.393                : Chapter 11
    00:28:11.815                : Chapter 12
    00:32:55.515                : Chapter 13
    00:35:39.971                : Chapter 14
    00:37:29.371                : Chapter 15
    00:41:38.203                : Chapter 16
    00:42:25.876                : Chapter 17
    00:45:04.117                : Chapter 18
    00:46:06.680                : Chapter 19
    00:48:53.638                : Chapter 20
    00:51:00.098                : Chapter 21
    00:52:04.746                : Chapter 22
    00:54:33.561                : Chapter 23
    00:56:18.833                : Chapter 24
    00:58:30.339                : Chapter 25
    01:00:07.520                : Chapter 26
    01:00:43.597                : Chapter 27
    01:02:10.059                : Chapter 28
    01:04:51.929                : Chapter 29
    01:06:49.088                : Chapter 30
    01:09:33.835                : Chapter 31
    01:13:19.978                : Chapter 32
    01:16:47.477                : Chapter 33
    01:19:33.476                : Chapter 34
    01:20:53.723                : Chapter 35
    01:24:34.944                : Chapter 36
    01:33:41.531                : Chapter 37

  • Peso: 40.6 GiB

Sinopsis

Ambientada en un precioso pueblo costero de la Riviera italiana, narra la historia sobre el paso a la edad adulta de un chico que vive un verano inolvidable lleno de helados, pasta e infinitos paseos en scooter. Luca comparte estas aventuras con su nuevo mejor amigo, pero toda la diversión se ve amenazada por un secreto muy profundo: él es un monstruo marino de un mundo que yace bajo la superficie del agua.

 

Latino: E-AC3 7.1  –  Ingles: TrueHD 7.1 + AC3 5.1 + E-AC3 7.1

Ficha técnica

Video trailer de la película

Enlaces de descarga

Rip de Bluray

Descargar Luca (2021) REMUX 4K HDR Latino – CMHDD


Aportes de DPeliculasHDmega la pass es:dpeliculashdmega.org Aportes de CinemaniaHD la pass es:cinemaniahdd.com
Guardado en : Animación , Comedia , Familia , Fantasía

Películas relacionadas

descargar Luca (2021) REMUX 4K HDR Latino – CMHDD 4K HDR 1080p gratis, Luca (2021) REMUX 4K HDR Latino – CMHDD 4K HDR mega 1 link, Luca (2021) REMUX 4K HDR Latino – CMHDD 4K HDR pelicula completa, descargar Luca (2021) REMUX 4K HDR Latino – CMHDD 4K HDR gratis en mega.

Luca (2021) REMUX 4K HDR Latino – CMHDD pelicula full hd, Luca (2021) REMUX 4K HDR Latino – CMHDD mega latino, Luca (2021) REMUX 4K HDR Latino – CMHDD 4k latino, Luca (2021) REMUX 4K HDR Latino – CMHDD pelicula completa, Luca (2021) REMUX 4K HDR Latino – CMHDD descargar gratis, descargar Luca (2021) REMUX 4K HDR Latino – CMHDD pelicula latino, Luca (2021) REMUX 4K HDR Latino – CMHDD 1 link mega, Luca (2021) REMUX 4K HDR Latino – CMHDD 1 link google drive, Luca (2021) REMUX 4K HDR Latino – CMHDD hd 1080p latino.
Comentarios 0