Lovecraft Country (2020) Temporada 1 AMZN WEB-DL 1080p Latino

61 vistas
1 estrella2 estrellas3 estrellas4 estrellas5 estrellas (3 votos, promedio: 5,00 de 5)
Cargando...

Información de Lovecraft Country (2020) Temporada 1 AMZN WEB-DL 1080p Latino

Datos de la película

  • Calidad: WEBDL
  • Audio: Español Latino AC3 2.0 WEB-DL - Ingles AC3 5.1 WEB-DL
  • Subtitulos: Español Latino SRT- FORZADOS SRT
  • Resolución: 1920x1080
  • Formato: MKV
  • Codec: H.264
  • Encoder: cinemaniahdd
  • Mediainfo: Clic para Mostrar Datos Ver
  • Lovecraft Country T01E01 AMZN WEB-DL 1080p Latino [CNMNHDD].mkv
    Format                      : Matroska
    Format version              : Version 4
    File size                   : 4.44 GiB
    Duration                    : 1 h 8 min
    Overall bit rate            : 9 324 kb/s
    Movie name                  : Lovecraft Country T01E01 - CinemaniaHDD.Net
    Encoded date                : UTC 2020-08-17 01:26:17
    Writing application         : mkvmerge v46.0.0 ('No Deeper Escape') 64-bit
    Writing library             : libebml v1.3.10 + libmatroska v1.5.2

    Video
    ID                          : 1
    Format                      : AVC
    Format/Info                 : Advanced Video Codec
    Format profile              : High@L4
    Format settings             : CABAC / 4 Ref Frames
    Format settings, CABAC      : Yes
    Format settings, Reference  : 4 frames
    Codec ID                    : V_MPEG4/ISO/AVC
    Duration                    : 1 h 8 min
    Bit rate mode               : Constant
    Bit rate                    : 8 429 kb/s
    Nominal bit rate            : 10 000 kb/s
    Width                       : 1 920 pixels
    Height                      : 1 080 pixels
    Display aspect ratio        : 16:9
    Frame rate mode             : Constant
    Frame rate                  : 23.976 (23976/1000) FPS
    Original frame rate         : 23.976 (24000/1001) FPS
    Color space                 : YUV
    Chroma subsampling          : 4:2:0
    Bit depth                   : 8 bits
    Scan type                   : Progressive
    Bits/(Pixel*Frame)          : 0.170
    Stream size                 : 4.01 GiB (90%)
    Title                       : CinemaniaHDD
    Default                     : Yes
    Forced                      : No
    Color range                 : Limited
    Color primaries             : BT.709
    Transfer characteristics    : BT.709
    Matrix coefficients         : BT.709

    Audio #1
    ID                          : 2
    Format                      : AC-3
    Format/Info                 : Audio Coding 3
    Commercial name             : Dolby Digital
    Codec ID                    : A_AC3
    Duration                    : 1 h 8 min
    Bit rate mode               : Constant
    Bit rate                    : 256 kb/s
    Channel(s)                  : 2 channels
    Channel layout              : L R
    Sampling rate               : 48.0 kHz
    Frame rate                  : 31.250 FPS (1536 SPF)
    Compression mode            : Lossy
    Delay relative to video     : -1 s 588 ms
    Stream size                 : 125 MiB (3%)
    Title                       : Español latino [CinemaniaHDD]
    Language                    : Spanish
    Service kind                : Complete Main
    Default                     : Yes
    Forced                      : No

    Audio #2
    ID                          : 3
    Format                      : E-AC-3
    Format/Info                 : Enhanced AC-3
    Commercial name             : Dolby Digital Plus
    Codec ID                    : A_EAC3
    Duration                    : 1 h 8 min
    Bit rate mode               : Constant
    Bit rate                    : 640 kb/s
    Channel(s)                  : 6 channels
    Channel layout              : L R C LFE Ls Rs
    Sampling rate               : 48.0 kHz
    Frame rate                  : 31.250 FPS (1536 SPF)
    Compression mode            : Lossy
    Delay relative to video     : -1 s 588 ms
    Stream size                 : 312 MiB (7%)
    Title                       : Inglés [CinemaniaHDD]
    Language                    : English
    Service kind                : Complete Main
    Default                     : No
    Forced                      : No

    Text #1
    ID                          : 4
    Format                      : UTF-8
    Codec ID                    : S_TEXT/UTF8
    Codec ID/Info               : UTF-8 Plain Text
    Duration                    : 47 min 4 s
    Bit rate                    : 2 b/s
    Count of elements           : 23
    Stream size                 : 711 Bytes (0%)
    Title                       : Forzados [CinemaniaHDD]
    Language                    : Spanish
    Default                     : Yes
    Forced                      : Yes

    Text #2
    ID                          : 5
    Format                      : UTF-8
    Codec ID                    : S_TEXT/UTF8
    Codec ID/Info               : UTF-8 Plain Text
    Duration                    : 1 h 5 min
    Bit rate                    : 51 b/s
    Count of elements           : 816
    Stream size                 : 24.6 KiB (0%)
    Title                       : Español latino [CinemaniaHDD]
    Language                    : Spanish
    Default                     : No
    Forced                      : No

    Text #3
    ID                          : 6
    Format                      : UTF-8
    Codec ID                    : S_TEXT/UTF8
    Codec ID/Info               : UTF-8 Plain Text
    Duration                    : 1 h 8 min
    Bit rate                    : 73 b/s
    Count of elements           : 1328
    Stream size                 : 36.9 KiB (0%)
    Title                       : Inglés [CinemaniaHDD]
    Language                    : English
    Default                     : No
    Forced                      : No

     

  • Peso: 4.44 GiB --- 6 CAPITULOS AGREGADOS

Sinopsis

Basada en la novela de terror homónima de Matt Ruff, Lovecraft Country de HBO explora la combinación de las espeluznantes criaturas de las obras de H.P. Lovecraft con los terrores de la supremacía blanca de a través de la experiencia de una familia afroamericana luchando por sobrevivir a un viaje por carretera en los EUA de los años 50.

6 CAPITULOS AGREGADOS

Ficha técnica

Video trailer de la película

Enlaces de descarga

Rip de Bluray

Descargar Lovecraft Country (2020) Temporada 1 AMZN WEB-DL 1080p Latino




Aportes de DPeliculasHDmega la pass es:dpeliculashdmega.org Aportes de CinemaniaHD la pass es:cinemaniahdd.com
Guardado en : Drama , HBO , Misterio , Sci-Fi & Fantasy , Series

Películas relacionadas

  • Enola Holmes (2020) NF WEB-DL 1080p Latino

    Enola Holmes (2020) NF WEB-DL 1080p Latino

    2020
    Enola Holmes (2020) NF WEB-DL 1080p Latino

    5.0 2h 3m 2020

    Enola Holmes, una intrépida joven que busca a su madre, utiliza su brillante instinto investigador para...

    Director: Harry Bradbeer

    Género: Aventura

    Actores: Susan Wokoma

  • Ladrones De La Fama (2013) 1080p Latino

    Ladrones De La Fama (2013) 1080p Latino

    2013
    Ladrones De La Fama (2013) 1080p Latino

    0.0 1h 30m 2013

    Descargar Ladrones De La Fama (2013) 1080p Latino. En Los Ángeles, un grupo de adolescentes fascinados...

    Director: Sofia Coppola

    Género: Crimen

    Actores: Zoë Bleu Sidel

Comentarios 3
  • Jose E.T. - 07 septiembre, 2020

    Muchas gracias por el episodio de hoy (4), son geniales!!

  • Jose_E.T. - 16 agosto, 2020

    Muchas gracias, no puedo creer que tan rápido ya este el episodio!!! <3

  • will - 16 agosto, 2020

    muchísimas gracias