×

¿Problemas para descargar con Mozilla, EDGE? Deshabilita la opción "Abrir vinculos en una pestaña nueva" tal como lo muestra ésta imagen.

Love Under the Olive Tree (2020) Star WEB-DL 1080p Latino

190 vistas

Información de Love Under the Olive Tree (2020) Star WEB-DL 1080p Latino

Datos de la película

  • Calidad: WEBDL
  • Audio: Español Latino AC3 2.0 - Ingles AC3 2.0
  • Subtitulos: Español Latino SRT
  • Resolución: 1920x1080
  • Formato: MKV
  • Codec: H.264
  • Encoder: cinemaniahdd
  • Mediainfo: Clic para Mostrar Datos Ver
  • Love Under the Olive Tree (2020) Star WEB-DL 1080p Latino [CNMNHDD].mkv
    Format                      : Matroska
    Format version              : Version 4
    File size                   : 2.97 GiB
    Duration                    : 1 h 21 min
    Overall bit rate            : 5 211 kb/s
    Movie name                  : Love Under the Olive Tree (2020) - CinemaniaHDD.Net
    Encoded date                : UTC 2021-04-07 00:02:05
    Writing application         : mkvmerge v51.0.0 ('I Wish') 64-bit
    Writing library             : libebml v1.4.0 + libmatroska v1.6.2

    Video
    ID                          : 1
    Format                      : AVC
    Format/Info                 : Advanced Video Codec
    Format profile              : High@L4
    Format settings             : CABAC / 2 Ref Frames
    Format settings, CABAC      : Yes
    Format settings, Reference  : 2 frames
    Codec ID                    : V_MPEG4/ISO/AVC
    Duration                    : 1 h 21 min
    Bit rate                    : 5 000 kb/s
    Width                       : 1 920 pixels
    Height                      : 1 080 pixels
    Display aspect ratio        : 16:9
    Frame rate mode             : Constant
    Frame rate                  : 29.970 (29970/1000) FPS
    Color space                 : YUV
    Chroma subsampling          : 4:2:0
    Bit depth                   : 8 bits
    Scan type                   : Progressive
    Bits/(Pixel*Frame)          : 0.080
    Stream size                 : 2.83 GiB (95%)
    Title                       : CinemaniaHDD
    Writing library             : x264 core 148 r2579M 73ae2d1
    Encoding settings           : cabac=1 / ref=2 / deblock=1:0:0 / analyse=0x3:0x113 / me=hex / subme=2 / psy=1 / psy_rd=1.00:0.00 / mixed_ref=0 / me_range=16 / chroma_me=1 / trellis=0 / 8x8dct=1 / cqm=0 / deadzone=21,11 / fast_pskip=1 / chroma_qp_offset=0 / threads=4 / lookahead_threads=1 / sliced_threads=0 / nr=250 / decimate=1 / interlaced=0 / bluray_compat=0 / stitchable=1 / constrained_intra=0 / bframes=0 / weightp=1 / keyint=250 / keyint_min=25 / scenecut=40 / intra_refresh=0 / rc_lookahead=10 / rc=2pass / mbtree=1 / bitrate=5000 / ratetol=1.0 / qcomp=0.60 / qpmin=5 / qpmax=69 / qpstep=4 / cplxblur=20.0 / qblur=0.5 / vbv_maxrate=10000 / vbv_bufsize=5000 / nal_hrd=none / filler=0 / ip_ratio=1.40 / aq=1:1.00
    Language                    : Spanish
    Default                     : Yes
    Forced                      : No
    Color range                 : Limited
    Color primaries             : BT.709
    Transfer characteristics    : BT.709
    Matrix coefficients         : BT.709

    Audio #1
    ID                          : 2
    Format                      : AAC LC SBR
    Format/Info                 : Advanced Audio Codec Low Complexity with Spectral Band Replication
    Commercial name             : HE-AAC
    Format settings             : Explicit
    Codec ID                    : A_AAC-2
    Duration                    : 1 h 21 min
    Bit rate                    : 127 kb/s
    Channel(s)                  : 2 channels
    Channel layout              : L R
    Sampling rate               : 48.0 kHz
    Frame rate                  : 23.438 FPS (2048 SPF)
    Compression mode            : Lossy
    Stream size                 : 74.1 MiB (2%)
    Title                       : Español latino [CinemaniaHDD]
    Language                    : Spanish
    Default                     : Yes
    Forced                      : Yes

    Audio #2
    ID                          : 3
    Format                      : AAC LC SBR
    Format/Info                 : Advanced Audio Codec Low Complexity with Spectral Band Replication
    Commercial name             : HE-AAC
    Format settings             : Explicit
    Codec ID                    : A_AAC-2
    Duration                    : 1 h 21 min
    Bit rate                    : 127 kb/s
    Channel(s)                  : 2 channels
    Channel layout              : L R
    Sampling rate               : 48.0 kHz
    Frame rate                  : 23.438 FPS (2048 SPF)
    Compression mode            : Lossy
    Stream size                 : 74.1 MiB (2%)
    Title                       : Inglés [CinemaniaHDD]
    Language                    : English
    Default                     : No
    Forced                      : No

    Text
    ID                          : 4
    Format                      : UTF-8
    Codec ID                    : S_TEXT/UTF8
    Codec ID/Info               : UTF-8 Plain Text
    Duration                    : 1 h 19 min
    Bit rate                    : 82 b/s
    Count of elements           : 1655
    Stream size                 : 48.0 KiB (0%)
    Title                       : Español latino [CinemaniaHDD]
    Language                    : Spanish
    Default                     : No
    Forced                      : No

     

  • Peso: 2.97 GiB

Sinopsis

El premio del concurso anual de aceite de oliva de Sunset Valley es una parcela con propiedad en litigio, y cuando la enérgica Nicole y el competitivo Jake se enfrentan para ganar, ninguno imagina que una chispa entre ambos pueda encenderse.

Ficha técnica

Video trailer de la película

Enlaces de descarga

Rip de Bluray

Descargar Love Under the Olive Tree (2020) Star WEB-DL 1080p Latino




Aportes de DPeliculasHDmega la pass es:dpeliculashdmega.org Aportes de CinemaniaHD la pass es:cinemaniahdd.com
Guardado en : Película de TV , Romance

Películas relacionadas

  • First Love (2022) AMZN WEB-DL 1080p Latino

    First Love (2022) AMZN WEB-DL 1080p Latino

    2022
    First Love (2022) AMZN WEB-DL 1080p Latino

    1h 35m 2022

    Descargar First Love (2022) AMZN WEB-DL 1080p Latino. Una tierna mirada sobre la entrada en la edad adulta....

    Director: Joshua Glassman

    Género: Drama

    Actores: Vincent Ventresca

  • Romance en Verona (2022) NF WEB-DL 1080p Latino

    Romance en Verona (2022) NF WEB-DL 1080p Latino

    2022
    Romance en Verona (2022) NF WEB-DL 1080p Latino

    1h 55m 2022

    Descargar Romance en Verona (2022) NF WEB-DL 1080p Latino. Una joven hace un viaje a la romántica Verona,...

    Director: Mark Steven Johnson

    Género: Comedia

    Actores: Tom Hopper

  • Sorpresa en Navidad (2020) NF WEB-DL 1080p Latino

    Sorpresa en Navidad (2020) NF WEB-DL 1080p Latino

    2020
    Sorpresa en Navidad (2020) NF WEB-DL 1080p Latino

    1h 28m 2020

    Descargar Sorpresa en Navidad (2020) NF WEB-DL 1080p Latino. Cuando Hayley acepta una invitación para...

    Director: Ernie Barbarash

    Género: Drama

    Actores: Vanessa Sears

descargar Love Under the Olive Tree (2020) Star WEB-DL 1080p Latino WEBDL 1080p gratis, Love Under the Olive Tree (2020) Star WEB-DL 1080p Latino WEBDL mega 1 link, Love Under the Olive Tree (2020) Star WEB-DL 1080p Latino WEBDL pelicula completa, descargar Love Under the Olive Tree (2020) Star WEB-DL 1080p Latino WEBDL gratis en mega.

Love Under the Olive Tree (2020) Star WEB-DL 1080p Latino pelicula full hd, Love Under the Olive Tree (2020) Star WEB-DL 1080p Latino mega latino, Love Under the Olive Tree (2020) Star WEB-DL 1080p Latino 4k latino, Love Under the Olive Tree (2020) Star WEB-DL 1080p Latino pelicula completa, Love Under the Olive Tree (2020) Star WEB-DL 1080p Latino descargar gratis, descargar Love Under the Olive Tree (2020) Star WEB-DL 1080p Latino pelicula latino, Love Under the Olive Tree (2020) Star WEB-DL 1080p Latino 1 link mega, Love Under the Olive Tree (2020) Star WEB-DL 1080p Latino 1 link google drive, Love Under the Olive Tree (2020) Star WEB-DL 1080p Latino hd 1080p latino.
Comentarios 0