×

¿Problemas para descargar con Mozilla, EDGE? Deshabilita la opción "Abrir vinculos en una pestaña nueva" tal como lo muestra ésta imagen.

Love Life (2020) Primera Temporada HMAX WEB-DL 1080p Latino

154 vistas

Información de Love Life (2020) Primera Temporada HMAX WEB-DL 1080p Latino

Datos de la película

  • Calidad: 1080p
  • Audio: Español Latino AC3 2.0 WEB-DL - Ingles AC3 5.1 WEB-DL
  • Subtitulos: Español Latino SRT - Ingles SRT
  • Resolución: 1920x1080
  • Formato: MKV
  • Codec: H.264
  • Encoder: cinemaniahdd
  • Mediainfo: Clic para Mostrar Datos Ver
  • Love Life T01E01 HMAX WEB-DL 1080p Latino [CNMNHDD].mkv
    Format                      : Matroska
    Format version              : Version 4
    File size                   : 1.94 GiB
    Duration                    : 30 min 54 s
    Overall bit rate mode       : Variable
    Overall bit rate            : 8 965 kb/s
    Movie name                  : Love Life T01E01 - CinemaniaHDD.Net
    Encoded date                : UTC 2021-07-01 01:54:52
    Writing application         : mkvmerge v56.1.0 ('My Friend') 64-bit
    Writing library             : libebml v1.4.2 + libmatroska v1.6.4

    Video
    ID                          : 1
    Format                      : AVC
    Format/Info                 : Advanced Video Codec
    Format profile              : High@L4
    Format settings             : CABAC / 4 Ref Frames
    Format settings, CABAC      : Yes
    Format settings, Reference  : 4 frames
    Codec ID                    : V_MPEG4/ISO/AVC
    Duration                    : 30 min 49 s
    Bit rate mode               : Variable
    Bit rate                    : 8 222 kb/s
    Maximum bit rate            : 12.4 Mb/s
    Width                       : 1 920 pixels
    Height                      : 1 080 pixels
    Display aspect ratio        : 16:9
    Frame rate mode             : Constant
    Frame rate                  : 23.976 (24000/1001) FPS
    Color space                 : YUV
    Chroma subsampling          : 4:2:0
    Bit depth                   : 8 bits
    Scan type                   : Progressive
    Bits/(Pixel*Frame)          : 0.165
    Stream size                 : 1.77 GiB (91%)
    Title                       : CinemaniaHDD
    Default                     : Yes
    Forced                      : No

    Audio #1
    ID                          : 2
    Format                      : AC-3
    Format/Info                 : Audio Coding 3
    Commercial name             : Dolby Digital
    Codec ID                    : A_AC3
    Duration                    : 30 min 54 s
    Bit rate mode               : Constant
    Bit rate                    : 384 kb/s
    Channel(s)                  : 2 channels
    Channel layout              : L R
    Sampling rate               : 48.0 kHz
    Frame rate                  : 31.250 FPS (1536 SPF)
    Compression mode            : Lossy
    Stream size                 : 84.9 MiB (4%)
    Title                       : Español latino [CinemaniaHDD]
    Language                    : Spanish
    Service kind                : Complete Main
    Default                     : Yes
    Forced                      : No

    Audio #2
    ID                          : 3
    Format                      : AC-3
    Format/Info                 : Audio Coding 3
    Commercial name             : Dolby Digital
    Codec ID                    : A_AC3
    Duration                    : 30 min 49 s
    Bit rate mode               : Constant
    Bit rate                    : 384 kb/s
    Channel(s)                  : 6 channels
    Channel layout              : L R C LFE Ls Rs
    Sampling rate               : 48.0 kHz
    Frame rate                  : 31.250 FPS (1536 SPF)
    Compression mode            : Lossy
    Stream size                 : 84.6 MiB (4%)
    Title                       : Inglés [CinemaniaHDD]
    Language                    : English
    Service kind                : Complete Main
    Default                     : No
    Forced                      : No

    Text #1
    ID                          : 4
    Format                      : UTF-8
    Codec ID                    : S_TEXT/UTF8
    Codec ID/Info               : UTF-8 Plain Text
    Duration                    : 29 min 34 s
    Bit rate                    : 92 b/s
    Count of elements           : 781
    Stream size                 : 20.1 KiB (0%)
    Title                       : Español latino [CinemaniaHDD]
    Language                    : Spanish
    Default                     : No
    Forced                      : No

    Text #2
    ID                          : 5
    Format                      : UTF-8
    Codec ID                    : S_TEXT/UTF8
    Codec ID/Info               : UTF-8 Plain Text
    Duration                    : 30 min 37 s
    Bit rate                    : 111 b/s
    Count of elements           : 984
    Stream size                 : 25.0 KiB (0%)
    Title                       : Inglés [CinemaniaHDD]
    Language                    : English
    Default                     : No
    Forced                      : No

     

  • Peso: 1.94 GiB Aprox ---- 20 GiB in 10 Chapters.

Sinopsis

Una serie de antología de comedia romántica que sigue a un protagonista diferente cada temporada en el viaje del primer amor al último amor, con cada episodio de media hora que narra una de sus relaciones. La primera temporada se centra en Darby, quien dirige una gira de «traseros históricamente significativos» para una compañía encabezada por Bradley de McNairy.

Ficha técnica

Video trailer de la película

Enlaces de descarga

Rip de Bluray

Descargar Love Life (2020) Primera Temporada HMAX WEB-DL 1080p Latino




Aportes de DPeliculasHDmega la pass es:dpeliculashdmega.org Aportes de CinemaniaHD la pass es:cinemaniahdd.com
Guardado en : Comedia , Drama , HBO , HBOMAX

Películas relacionadas

descargar Love Life (2020) Primera Temporada HMAX WEB-DL 1080p Latino 1080p 1080p gratis, Love Life (2020) Primera Temporada HMAX WEB-DL 1080p Latino 1080p mega 1 link, Love Life (2020) Primera Temporada HMAX WEB-DL 1080p Latino 1080p pelicula completa, descargar Love Life (2020) Primera Temporada HMAX WEB-DL 1080p Latino 1080p gratis en mega.

Love Life (2020) Primera Temporada HMAX WEB-DL 1080p Latino pelicula full hd, Love Life (2020) Primera Temporada HMAX WEB-DL 1080p Latino mega latino, Love Life (2020) Primera Temporada HMAX WEB-DL 1080p Latino 4k latino, Love Life (2020) Primera Temporada HMAX WEB-DL 1080p Latino pelicula completa, Love Life (2020) Primera Temporada HMAX WEB-DL 1080p Latino descargar gratis, descargar Love Life (2020) Primera Temporada HMAX WEB-DL 1080p Latino pelicula latino, Love Life (2020) Primera Temporada HMAX WEB-DL 1080p Latino 1 link mega, Love Life (2020) Primera Temporada HMAX WEB-DL 1080p Latino 1 link google drive, Love Life (2020) Primera Temporada HMAX WEB-DL 1080p Latino hd 1080p latino.
Comentarios 0