×

¿Problemas para descargar con Mozilla, EDGE? Deshabilita la opción "Abrir vinculos en una pestaña nueva" tal como lo muestra ésta imagen.

Love Jacked (2018) NF WEB-DL 108p Latino

1.007 vistas

Información de Love Jacked (2018) NF WEB-DL 108p Latino

Datos de la película

  • Calidad: WEBDL
  • Audio: Español Latino AC3 5.1 Netflix - Ingles AC3 5.1 Netflix
  • Subtitulos: Español Latino SRT - Ingles SRT
  • Resolución: 1920x1080
  • Formato: MKV
  • Codec: H.264
  • Encoder: cinemaniahdd
  • Mediainfo: Clic para Mostrar Datos Ver
  • Un amor muy conveniente (2018) NF WEB-DL 1080p Latino.mkv
    Format                      : Matroska
    Format version              : Version 4
    File size                   : 1.64 GiB
    Duration                    : 1 h 33 min
    Overall bit rate            : 2 502 kb/s
    Movie name                  : Un amor muy conveniente (2018) - CinemaniaHDD.Net
    Encoded date                : UTC 2020-02-04 03:54:29
    Writing application         : mkvmerge v42.0.0 ('Overtime') 64-bit
    Writing library             : libebml v1.3.10 + libmatroska v1.5.2

    Video
    ID                          : 1
    Format                      : AVC
    Format/Info                 : Advanced Video Codec
    Format profile              : High@L4
    Format settings             : CABAC / 3 Ref Frames
    Format settings, CABAC      : Yes
    Format settings, ReFrames   : 3 frames
    Codec ID                    : V_MPEG4/ISO/AVC
    Duration                    : 1 h 33 min
    Bit rate                    : 1 732 kb/s
    Width                       : 1 920 pixels
    Height                      : 1 080 pixels
    Display aspect ratio        : 16:9
    Frame rate mode             : Constant
    Frame rate                  : 24.000 FPS
    Color space                 : YUV
    Chroma subsampling          : 4:2:0
    Bit depth                   : 8 bits
    Scan type                   : Progressive
    Bits/(Pixel*Frame)          : 0.035
    Stream size                 : 1.13 GiB (69%)
    Title                       : CinemaniaHDD
    Default                     : Yes
    Forced                      : No

    Audio #1
    ID                          : 2
    Format                      : AC-3
    Format/Info                 : Audio Coding 3
    Commercial name             : Dolby Digital
    Codec ID                    : A_AC3
    Duration                    : 1 h 33 min
    Bit rate mode               : Constant
    Bit rate                    : 384 kb/s
    Channel(s)                  : 6 channels
    Channel layout              : L R C LFE Ls Rs
    Sampling rate               : 48.0 kHz
    Frame rate                  : 31.250 FPS (1536 SPF)
    Bit depth                   : 16 bits
    Compression mode            : Lossy
    Stream size                 : 257 MiB (15%)
    Title                       : Español latino [CinemaniaHDD]
    Language                    : Spanish
    Service kind                : Complete Main
    Default                     : Yes
    Forced                      : No

    Audio #2
    ID                          : 3
    Format                      : AC-3
    Format/Info                 : Audio Coding 3
    Commercial name             : Dolby Digital
    Codec ID                    : A_AC3
    Duration                    : 1 h 33 min
    Bit rate mode               : Constant
    Bit rate                    : 384 kb/s
    Channel(s)                  : 6 channels
    Channel layout              : L R C LFE Ls Rs
    Sampling rate               : 48.0 kHz
    Frame rate                  : 31.250 FPS (1536 SPF)
    Bit depth                   : 16 bits
    Compression mode            : Lossy
    Stream size                 : 257 MiB (15%)
    Title                       : Inglés [CinemaniaHDD]
    Language                    : English
    Service kind                : Complete Main
    Default                     : No
    Forced                      : No

    Text #1
    ID                          : 4
    Format                      : UTF-8
    Codec ID                    : S_TEXT/UTF8
    Codec ID/Info               : UTF-8 Plain Text
    Duration                    : 1 h 32 min
    Bit rate                    : 52 b/s
    Count of elements           : 1220
    Stream size                 : 35.9 KiB (0%)
    Title                       : Español latino [CinemaniaHDD]
    Language                    : Spanish
    Default                     : No
    Forced                      : No

    Text #2
    ID                          : 5
    Format                      : UTF-8
    Codec ID                    : S_TEXT/UTF8
    Codec ID/Info               : UTF-8 Plain Text
    Duration                    : 1 h 29 min
    Bit rate                    : 82 b/s
    Count of elements           : 1821
    Stream size                 : 54.3 KiB (0%)
    Title                       : Inglés [CinemaniaHDD]
    Language                    : English
    Default                     : No
    Forced                      : No

     

  • Peso: 1.64 GiB

Sinopsis

Maya, una testaruda mujer de 28 años con ambiciones artísticas, un fuerte contraste con lo que su padre Ed quiere: una hija obediente que dirija la tienda familiar. Ed se sorprende cuando Maya lleva sus afirmaciones de independencia un paso más allá y decide viajar a África en busca de inspiración y regresa con un prometido que no es lo que parece.

Ficha técnica

  • Titulo original: Love Jacked
  • Fecha de lanzamiento: 07-12-2018 (Canada, South Africa, United States of America)
  • Director: Alfons Adetuyi
  • Género: Comedia, Romance

Video trailer de la película

Enlaces de descarga

Rip de Bluray

Descargar Love Jacked (2018) NF WEB-DL 108p Latino




Aportes de DPeliculasHDmega la pass es:dpeliculashdmega.org Aportes de CinemaniaHD la pass es:cinemaniahdd.com Aportes recientes:cinemaniahdd.net
Guardado en : Comedia , Romance

Películas relacionadas

descargar Love Jacked (2018) NF WEB-DL 108p Latino WEBDL 1080p gratis, Love Jacked (2018) NF WEB-DL 108p Latino WEBDL mega 1 link, Love Jacked (2018) NF WEB-DL 108p Latino WEBDL pelicula completa, descargar Love Jacked (2018) NF WEB-DL 108p Latino WEBDL gratis en mega.

Love Jacked (2018) NF WEB-DL 108p Latino pelicula full hd, Love Jacked (2018) NF WEB-DL 108p Latino mega latino, Love Jacked (2018) NF WEB-DL 108p Latino 4k latino, Love Jacked (2018) NF WEB-DL 108p Latino pelicula completa, Love Jacked (2018) NF WEB-DL 108p Latino descargar gratis, descargar Love Jacked (2018) NF WEB-DL 108p Latino pelicula latino, Love Jacked (2018) NF WEB-DL 108p Latino 1 link mega, Love Jacked (2018) NF WEB-DL 108p Latino 1 link google drive, Love Jacked (2018) NF WEB-DL 108p Latino hd 1080p latino.
Comentarios 0