×

¿Problemas para descargar con Mozilla, EDGE? Deshabilita la opción "Abrir vinculos en una pestaña nueva" tal como lo muestra ésta imagen.

Love in Harmony Valley (2020) AMZN WEB-DL 1080p Latino

365 vistas

Información de Love in Harmony Valley (2020) AMZN WEB-DL 1080p Latino

Datos de la película

  • Calidad: 1080p
  • Audio: Español Latino AC3 2.0 WEB-DL - Ingles AC3 5.1 WEB-DL
  • Subtitulos: Español Latino SRT- FORZADOS SRT
  • Resolución: 1920x1080
  • Formato: MKV
  • Codec: H.264
  • Encoder: cinemaniahdd
  • Mediainfo: Clic para Mostrar Datos Ver
  • Love in Harmony Valley (2020) AMZN WEB-DL 1080p Latino [CNMNHDD].mkv
    Format                      : Matroska
    Format version              : Version 4
    File size                   : 6.66 GiB
    Duration                    : 1 h 30 min
    Overall bit rate            : 10.5 Mb/s
    Movie name                  : Love in Harmony Valley (2020) [1080p] - CinemaniaHDD.Net
    Encoded date                : UTC 2023-04-09 02:03:14
    Writing application         : mkvmerge v56.1.0 ('My Friend') 64-bit
    Writing library             : libebml v1.4.2 + libmatroska v1.6.4

    Video
    ID                          : 1
    Format                      : AVC
    Format/Info                 : Advanced Video Codec
    Format profile              : High@L4
    Format settings             : CABAC / 4 Ref Frames
    Format settings, CABAC      : Yes
    Format settings, Reference  : 4 frames
    Codec ID                    : V_MPEG4/ISO/AVC
    Duration                    : 1 h 30 min
    Bit rate mode               : Constant
    Bit rate                    : 9 494 kb/s
    Nominal bit rate            : 10 000 kb/s
    Width                       : 1 920 pixels
    Height                      : 1 080 pixels
    Display aspect ratio        : 16:9
    Frame rate mode             : Constant
    Frame rate                  : 23.976 (24000/1001) FPS
    Color space                 : YUV
    Chroma subsampling          : 4:2:0
    Bit depth                   : 8 bits
    Scan type                   : Progressive
    Bits/(Pixel*Frame)          : 0.191
    Stream size                 : 6.01 GiB (90%)
    Title                       : CinemaniaHDD
    Default                     : Yes
    Forced                      : No
    Color range                 : Limited
    Color primaries             : BT.709
    Transfer characteristics    : BT.709
    Matrix coefficients         : BT.709

    Audio #1
    ID                          : 2
    Format                      : AC-3
    Format/Info                 : Audio Coding 3
    Commercial name             : Dolby Digital
    Codec ID                    : A_AC3
    Duration                    : 1 h 30 min
    Bit rate mode               : Constant
    Bit rate                    : 384 kb/s
    Channel(s)                  : 2 channels
    Channel layout              : L R
    Sampling rate               : 48.0 kHz
    Frame rate                  : 31.250 FPS (1536 SPF)
    Compression mode            : Lossy
    Stream size                 : 249 MiB (4%)
    Title                       : Español Latino [CinemaniaHDD]
    Language                    : Spanish
    Service kind                : Complete Main
    Default                     : Yes
    Forced                      : No

    Audio #2
    ID                          : 3
    Format                      : E-AC-3
    Format/Info                 : Enhanced AC-3
    Commercial name             : Dolby Digital Plus
    Codec ID                    : A_EAC3
    Duration                    : 1 h 30 min
    Bit rate mode               : Constant
    Bit rate                    : 640 kb/s
    Channel(s)                  : 6 channels
    Channel layout              : L R C LFE Ls Rs
    Sampling rate               : 48.0 kHz
    Frame rate                  : 31.250 FPS (1536 SPF)
    Compression mode            : Lossy
    Stream size                 : 415 MiB (6%)
    Title                       : Inglés [CinemaniaHDD]
    Language                    : English
    Service kind                : Complete Main
    Default                     : No
    Forced                      : No

    Text #1
    ID                          : 4
    Format                      : UTF-8
    Codec ID                    : S_TEXT/UTF8
    Codec ID/Info               : UTF-8 Plain Text
    Duration                    : 59 min 31 s
    Bit rate                    : 0 b/s
    Count of elements           : 2
    Stream size                 : 62.0 Bytes (0%)
    Title                       : Forzados [CinemaniaHDD]
    Language                    : Spanish
    Default                     : Yes
    Forced                      : Yes

    Text #2
    ID                          : 5
    Format                      : UTF-8
    Codec ID                    : S_TEXT/UTF8
    Codec ID/Info               : UTF-8 Plain Text
    Duration                    : 1 h 28 min
    Bit rate                    : 65 b/s
    Count of elements           : 1347
    Stream size                 : 42.4 KiB (0%)
    Title                       : Español Latino [CinemaniaHDD]
    Language                    : Spanish
    Default                     : No
    Forced                      : No

    Text #3
    ID                          : 6
    Format                      : UTF-8
    Codec ID                    : S_TEXT/UTF8
    Codec ID/Info               : UTF-8 Plain Text
    Duration                    : 1 h 29 min
    Bit rate                    : 82 b/s
    Count of elements           : 1741
    Stream size                 : 54.2 KiB (0%)
    Title                       : Inglés [CinemaniaHDD]
    Language                    : English
    Default                     : No
    Forced                      : No

     

  • Peso: 6.66 GiB

Sinopsis

Emma estuvo ansiosa por reunirse con su mejor amiga Tracey, que se está recuperando de un grave accidente. Pero Will, el hermano de Tracey, no lo permitirá, ya que la culpa del accidente. Cuando se vean obligados a trabajar juntos para mejorar su comunidad, ¿aprenderán Will y Emma a respetarse mutuamente?

Ficha técnica

Video trailer de la película

Enlaces de descarga

Rip de Bluray

Descargar Love in Harmony Valley (2020) AMZN WEB-DL 1080p Latino




Aportes de DPeliculasHDmega la pass es:dpeliculashdmega.org Aportes de CinemaniaHD la pass es:cinemaniahdd.com Aportes recientes:cinemaniahdd.net
Guardado en : Película de TV , Romance

Películas relacionadas

  • Amor, Mentiras y Sangre (2024) REMUX 1080p Latino

    Amor, Mentiras y Sangre (2024) REMUX 1080p Latino

    2024
    Amor, Mentiras y Sangre (2024) REMUX 1080p Latino

    1h 44m 2024

    Descargar Amor, Mentiras y Sangre (2024) REMUX 1080p Latino. Jackie está decidida a triunfar como culturista...

    Director: William Merritt Thomas

    Género: Crimen

    Actores: Tait Fletcher

  • Amor, Mentiras y Sangre (2024) HD 1080p Latino

    Amor, Mentiras y Sangre (2024) HD 1080p Latino

    2024
    Amor, Mentiras y Sangre (2024) HD 1080p Latino

    1h 44m 2024

    Descargar Amor, Mentiras y Sangre (2024) HD 1080p Latino. Jackie está decidida a triunfar como culturista...

    Director: William Merritt Thomas

    Género: Crimen

    Actores: Tait Fletcher

  • Love Lies Bleeding (2024) AMZN WEB-DL 1080p Latino

    Love Lies Bleeding (2024) AMZN WEB-DL 1080p Latino

    2024
    Love Lies Bleeding (2024) AMZN WEB-DL 1080p Latino

    1h 44m 2024

    Jackie está decidida a triunfar como culturista y se dirige a Las Vegas para participar en una competición....

    Director: William Merritt Thomas

    Género: Crimen

    Actores: Tait Fletcher

  • Find Me Falling (2024) NF WEB-DL 1080p Latino

    Find Me Falling (2024) NF WEB-DL 1080p Latino

    2024
    Find Me Falling (2024) NF WEB-DL 1080p Latino

    0h 0m 2024

    Descargar Find Me Falling (2024) NF WEB-DL 1080p Latino. Tras el fracaso del disco con el que pensaba...

    Director: Stelana Kliris

    Género: Comedia

    Actores: Yiola Klitou

descargar Love in Harmony Valley (2020) AMZN WEB-DL 1080p Latino 1080p 1080p gratis, Love in Harmony Valley (2020) AMZN WEB-DL 1080p Latino 1080p mega 1 link, Love in Harmony Valley (2020) AMZN WEB-DL 1080p Latino 1080p pelicula completa, descargar Love in Harmony Valley (2020) AMZN WEB-DL 1080p Latino 1080p gratis en mega.

Love in Harmony Valley (2020) AMZN WEB-DL 1080p Latino pelicula full hd, Love in Harmony Valley (2020) AMZN WEB-DL 1080p Latino mega latino, Love in Harmony Valley (2020) AMZN WEB-DL 1080p Latino 4k latino, Love in Harmony Valley (2020) AMZN WEB-DL 1080p Latino pelicula completa, Love in Harmony Valley (2020) AMZN WEB-DL 1080p Latino descargar gratis, descargar Love in Harmony Valley (2020) AMZN WEB-DL 1080p Latino pelicula latino, Love in Harmony Valley (2020) AMZN WEB-DL 1080p Latino 1 link mega, Love in Harmony Valley (2020) AMZN WEB-DL 1080p Latino 1 link google drive, Love in Harmony Valley (2020) AMZN WEB-DL 1080p Latino hd 1080p latino.
Comentarios 0