×

¿Problemas para descargar con Mozilla, EDGE? Deshabilita la opción "Abrir vinculos en una pestaña nueva" tal como lo muestra ésta imagen.

La posibilidad estadística del amor a primera vista (2023) NF WEB-DL 1080p Latino

173 vistas

Información de La posibilidad estadística del amor a primera vista (2023) NF WEB-DL 1080p Latino

Datos de la película

  • Calidad: WEBDL
  • Audio: Español Latino E-AC3 5.1 Netflix - Ingles E-AC3 5.1 Netflix
  • Subtitulos: Español Latino SRT- FORZADOS SRT
  • Resolución: 1920x1080p
  • Formato: MKV
  • Codec: H.264
  • Encoder: Melkor
  • Mediainfo: Clic para Mostrar Datos Ver
  • Love at First Sight (2023) NF WebDL 1080p Latino.mkv
    Format                      : Matroska
    Format version              : Version 4
    File size                   : 4.26 GiB
    Duration                    : 1 h 31 min
    Overall bit rate mode       : Variable
    Overall bit rate            : 6 686 kb/s
    Movie name                  : Love at First Sight (2023) CinemaniaHDD.Net
    Encoded date                : UTC 2023-09-16 22:28:25
    Writing application         : mkvmerge v56.1.0 ('My Friend') 64-bit
    Writing library             : libebml v1.4.2 + libmatroska v1.6.4
    Attachments                 : CINEMANIAHD.png
    Site                        : CinemaniaHDD.Net
    Uploader                    : Melkor

    Video
    ID                          : 1
    Format                      : AVC
    Format/Info                 : Advanced Video Codec
    Format profile              : Main@L4
    Format settings             : CABAC / 3 Ref Frames
    Format settings, CABAC      : Yes
    Format settings, Reference  : 3 frames
    Codec ID                    : V_MPEG4/ISO/AVC
    Duration                    : 1 h 31 min
    Bit rate mode               : Variable
    Bit rate                    : 5 000 kb/s
    Maximum bit rate            : 7 500 kb/s
    Width                       : 1 920 pixels
    Height                      : 1 080 pixels
    Display aspect ratio        : 16:9
    Frame rate mode             : Constant
    Frame rate                  : 23.976 (24000/1001) FPS
    Color space                 : YUV
    Chroma subsampling          : 4:2:0
    Bit depth                   : 8 bits
    Scan type                   : Progressive
    Bits/(Pixel*Frame)          : 0.101
    Stream size                 : 3.07 GiB (72%)
    Title                       : Web HD1080p [CinemaniaHDD]
    Writing library             : x264 core 148 r2727 7d026e8
    Encoding settings           : cabac=1 / ref=3 / deblock=1:0:0 / analyse=0x1:0x111 / me=umh / subme=10 / psy=1 / psy_rd=1.00:0.00 / mixed_ref=1 / me_range=24 / chroma_me=1 / trellis=2 / 8x8dct=0 / cqm=0 / deadzone=21,11 / fast_pskip=1 / chroma_qp_offset=-2 / threads=6 / lookahead_threads=1 / sliced_threads=0 / nr=0 / decimate=1 / interlaced=0 / bluray_compat=0 / stitchable=1 / constrained_intra=0 / bframes=2 / b_pyramid=0 / b_adapt=2 / b_bias=0 / direct=3 / weightb=1 / open_gop=0 / weightp=2 / keyint=240 / keyint_min=121 / scenecut=0 / intra_refresh=0 / rc_lookahead=48 / rc=2pass / mbtree=1 / bitrate=5000 / ratetol=1.0 / qcomp=0.50 / qpmin=6 / qpmax=51 / qpstep=4 / cplxblur=20.0 / qblur=0.5 / vbv_maxrate=7500 / vbv_bufsize=10000 / nal_hrd=vbr / filler=0 / ip_ratio=1.40 / aq=1:1.00
    Default                     : Yes
    Forced                      : Yes

    Audio #1
    ID                          : 2
    Format                      : AC-3
    Format/Info                 : Audio Coding 3
    Commercial name             : Dolby Digital
    Codec ID                    : A_AC3
    Duration                    : 1 h 31 min
    Bit rate mode               : Constant
    Bit rate                    : 448 kb/s
    Channel(s)                  : 6 channels
    Channel layout              : L R C LFE Ls Rs
    Sampling rate               : 48.0 kHz
    Frame rate                  : 31.250 FPS (1536 SPF)
    Compression mode            : Lossy
    Stream size                 : 292 MiB (7%)
    Title                       : Español Latino AC3 [CinemaniaHDD]
    Language                    : Spanish
    Service kind                : Complete Main
    Default                     : Yes
    Forced                      : Yes

    Audio #2
    ID                          : 3
    Format                      : E-AC-3
    Format/Info                 : Enhanced AC-3
    Commercial name             : Dolby Digital Plus
    Codec ID                    : A_EAC3
    Duration                    : 1 h 31 min
    Bit rate mode               : Constant
    Bit rate                    : 640 kb/s
    Channel(s)                  : 6 channels
    Channel layout              : L R C LFE Ls Rs
    Sampling rate               : 48.0 kHz
    Frame rate                  : 31.250 FPS (1536 SPF)
    Compression mode            : Lossy
    Stream size                 : 417 MiB (10%)
    Title                       : Español Latino EAC3 [CinemaniaHDD]
    Language                    : Spanish
    Service kind                : Complete Main
    Default                     : No
    Forced                      : No

    Audio #3
    ID                          : 4
    Format                      : E-AC-3 JOC
    Format/Info                 : Enhanced AC-3 with Joint Object Coding
    Commercial name             : Dolby Digital Plus with Dolby Atmos
    Codec ID                    : A_EAC3
    Duration                    : 1 h 31 min
    Bit rate mode               : Constant
    Bit rate                    : 768 kb/s
    Channel(s)                  : 6 channels
    Channel layout              : L R C LFE Ls Rs
    Sampling rate               : 48.0 kHz
    Frame rate                  : 31.250 FPS (1536 SPF)
    Compression mode            : Lossy
    Stream size                 : 501 MiB (11%)
    Title                       : Ingles [CinemaniaHDD]
    Language                    : English
    Service kind                : Complete Main
    Default                     : No
    Forced                      : No
    Complexity index            : 16
    Number of dynamic objects   : 15
    Bed channel count           : 1 channel
    Bed channel configuration   : LFE

    Text #1
    ID                          : 5
    Format                      : UTF-8
    Codec ID                    : S_TEXT/UTF8
    Codec ID/Info               : UTF-8 Plain Text
    Duration                    : 1 h 23 min
    Bit rate                    : 0 b/s
    Count of elements           : 10
    Stream size                 : 163 Bytes (0%)
    Title                       : Forzados-SRT [CinemaniaHDD]
    Language                    : Spanish
    Default                     : Yes
    Forced                      : Yes

    Text #2
    ID                          : 6
    Format                      : UTF-8
    Codec ID                    : S_TEXT/UTF8
    Codec ID/Info               : UTF-8 Plain Text
    Duration                    : 1 h 28 min
    Bit rate                    : 53 b/s
    Count of elements           : 1204
    Stream size                 : 34.7 KiB (0%)
    Title                       : Español-SRT [CinemaniaHDD]
    Language                    : Spanish
    Default                     : No
    Forced                      : No

    Text #3
    ID                          : 7
    Format                      : UTF-8
    Codec ID                    : S_TEXT/UTF8
    Codec ID/Info               : UTF-8 Plain Text
    Duration                    : 1 h 29 min
    Bit rate                    : 87 b/s
    Count of elements           : 1807
    Stream size                 : 57.1 KiB (0%)
    Title                       : Ingles-SRT [CinemaniaHDD]
    Language                    : English
    Default                     : No
    Forced                      : No

  • Peso: 4.26 GiB

Sinopsis

Descargar La posibilidad estadística del amor a primera vista (2023) NF WEB-DL 1080p Latino. Hadley y Oliver comienzan a enamorarse en un vuelo de Nueva York a Londres, pero cuando se pierden en la aduana, ¿podrán desafiar todas las probabilidades para reunirse?

Ficha técnica

  • Titulo original: Love at First Sight
  • Fecha de lanzamiento: 15-09-2023 (United Kingdom, United States of America)
  • Director: Vanessa Caswill
  • Género: Drama, Netflix, Romance

Video trailer de la película

Enlaces de descarga

Rip de Bluray

Descargar La posibilidad estadística del amor a primera vista (2023) NF WEB-DL 1080p Latino




Aportes de DPeliculasHDmega la pass es:dpeliculashdmega.org Aportes de CinemaniaHD la pass es:cinemaniahdd.com Aportes recientes:cinemaniahdd.net
Guardado en : Drama , Netflix , Romance

Películas relacionadas

  • Cómo robar un millón (1966) REMUX 1080p Latino-CMHDD

    Cómo robar un millón (1966) REMUX 1080p Latino-CMHDD

    1966
    Cómo robar un millón (1966) REMUX 1080p Latino-CMHDD

    2h 3m 1966

    Descargar Cómo robar un millón (1966) REMUX 1080p Latino-CMHDD. El padre de Nicole, un legendario coleccionista...

    Director: William Wyler

    Género: Comedia

    Actores: Roger Tréville

  • Milagros Inesperados (1999) 1080p Latino-CMHDD

    Milagros Inesperados (1999) 1080p Latino-CMHDD

    1999
    Milagros Inesperados (1999) 1080p Latino-CMHDD

    3h 9m 1999

    Descargar Milagros Inesperados (1999) 1080p Latino-CMHDD. En el sur de los Estados Unidos, en plena Depresión,...

    Director: Susan Malerstein

    Género: Crimen

    Actores: William Sadler

descargar La posibilidad estadística del amor a primera vista (2023) NF WEB-DL 1080p Latino WEBDL 1080p gratis, La posibilidad estadística del amor a primera vista (2023) NF WEB-DL 1080p Latino WEBDL mega 1 link, La posibilidad estadística del amor a primera vista (2023) NF WEB-DL 1080p Latino WEBDL pelicula completa, descargar La posibilidad estadística del amor a primera vista (2023) NF WEB-DL 1080p Latino WEBDL gratis en mega.

La posibilidad estadística del amor a primera vista (2023) NF WEB-DL 1080p Latino pelicula full hd, La posibilidad estadística del amor a primera vista (2023) NF WEB-DL 1080p Latino mega latino, La posibilidad estadística del amor a primera vista (2023) NF WEB-DL 1080p Latino 4k latino, La posibilidad estadística del amor a primera vista (2023) NF WEB-DL 1080p Latino pelicula completa, La posibilidad estadística del amor a primera vista (2023) NF WEB-DL 1080p Latino descargar gratis, descargar La posibilidad estadística del amor a primera vista (2023) NF WEB-DL 1080p Latino pelicula latino, La posibilidad estadística del amor a primera vista (2023) NF WEB-DL 1080p Latino 1 link mega, La posibilidad estadística del amor a primera vista (2023) NF WEB-DL 1080p Latino 1 link google drive, La posibilidad estadística del amor a primera vista (2023) NF WEB-DL 1080p Latino hd 1080p latino.
Comentarios 0