×

¿Problemas para descargar con Mozilla, EDGE? Deshabilita la opción "Abrir vinculos en una pestaña nueva" tal como lo muestra ésta imagen.

Los tres mosqueteros: D’Artagnan (2023) HD 1080p Latino

189 vistas

Información de Los tres mosqueteros: D’Artagnan (2023) HD 1080p Latino

Datos de la película

  • Calidad: 1080p
  • Audio: Se especifica abajo de la Sinopsis
  • Subtitulos: Español Latino SRT- FORZADOS SRT
  • Resolución: 1920x800p
  • Formato: MKV
  • Codec: H.264
  • Encoder: Melkor
  • Mediainfo: Clic para Mostrar Datos Ver
  • Los Tres Mosqueteros. D'Artagnan (2023) HD 1080p Latino.mkv
    Format                      : Matroska
    Format version              : Version 4
    File size                   : 3.51 GiB
    Duration                    : 2 h 1 min
    Overall bit rate            : 4 151 kb/s
    Movie name                  : Les Trois Mousquetaires D'Artagnan (2023) [The Three Musketeers: D’Artagnan] CinemaniaHDD.Net
    Encoded date                : UTC 2023-08-27 00:34:52
    Writing application         : mkvmerge v56.1.0 ('My Friend') 64-bit
    Writing library             : libebml v1.4.2 + libmatroska v1.6.4
    Attachments                 : CINEMANIAHD.png

    Video
    ID                          : 1
    Format                      : AVC
    Format/Info                 : Advanced Video Codec
    Format profile              : High@L4.1
    Format settings             : CABAC / 5 Ref Frames
    Format settings, CABAC      : Yes
    Format settings, Reference  : 5 frames
    Codec ID                    : V_MPEG4/ISO/AVC
    Duration                    : 2 h 1 min
    Bit rate                    : 3 500 kb/s
    Width                       : 1 920 pixels
    Height                      : 800 pixels
    Display aspect ratio        : 2.40:1
    Frame rate mode             : Constant
    Frame rate                  : 24.000 FPS
    Color space                 : YUV
    Chroma subsampling          : 4:2:0
    Bit depth                   : 8 bits
    Scan type                   : Progressive
    Bits/(Pixel*Frame)          : 0.095
    Stream size                 : 2.92 GiB (83%)
    Title                       : HD1080p [CinemaniaHDD]
    Writing library             : x264 core 163 r3059 b684ebe0
    Encoding settings           : cabac=1 / ref=5 / deblock=1:-1:-1 / analyse=0x3:0x133 / me=umh / subme=9 / psy=1 / psy_rd=1.00:0.15 / mixed_ref=1 / me_range=16 / chroma_me=1 / trellis=2 / 8x8dct=1 / cqm=0 / deadzone=21,11 / fast_pskip=1 / chroma_qp_offset=-3 / threads=24 / lookahead_threads=2 / sliced_threads=0 / nr=0 / decimate=1 / interlaced=0 / bluray_compat=0 / constrained_intra=0 / bframes=3 / b_pyramid=2 / b_adapt=2 / b_bias=0 / direct=3 / weightb=1 / open_gop=0 / weightp=2 / keyint=240 / keyint_min=24 / scenecut=40 / intra_refresh=0 / rc_lookahead=60 / rc=abr / mbtree=1 / bitrate=3500 / ratetol=1.0 / qcomp=0.60 / qpmin=0 / qpmax=69 / qpstep=4 / vbv_maxrate=62500 / vbv_bufsize=78125 / nal_hrd=none / filler=0 / ip_ratio=1.40 / aq=1:1.00
    Default                     : Yes
    Forced                      : Yes
    Color range                 : Limited
    Color primaries             : BT.709
    Transfer characteristics    : BT.709
    Matrix coefficients         : BT.709

    Audio #1
    ID                          : 2
    Format                      : AC-3
    Format/Info                 : Audio Coding 3
    Commercial name             : Dolby Digital
    Codec ID                    : A_AC3
    Duration                    : 2 h 1 min
    Bit rate mode               : Constant
    Bit rate                    : 256 kb/s
    Channel(s)                  : 2 channels
    Channel layout              : L R
    Sampling rate               : 48.0 kHz
    Frame rate                  : 31.250 FPS (1536 SPF)
    Compression mode            : Lossy
    Delay relative to video     : -5 ms
    Stream size                 : 222 MiB (6%)
    Title                       : Español Latino [CinemaniaHDD]
    Language                    : Spanish
    Service kind                : Complete Main
    Default                     : Yes
    Forced                      : Yes

    Audio #2
    ID                          : 3
    Format                      : AC-3
    Format/Info                 : Audio Coding 3
    Commercial name             : Dolby Digital
    Codec ID                    : A_AC3
    Duration                    : 2 h 1 min
    Bit rate mode               : Constant
    Bit rate                    : 448 kb/s
    Channel(s)                  : 6 channels
    Channel layout              : L R C LFE Ls Rs
    Sampling rate               : 48.0 kHz
    Frame rate                  : 31.250 FPS (1536 SPF)
    Compression mode            : Lossy
    Delay relative to video     : -5 ms
    Stream size                 : 388 MiB (11%)
    Title                       : Frances [CinemaniaHDD]
    Language                    : French
    Service kind                : Complete Main
    Default                     : No
    Forced                      : No

    Text #1
    ID                          : 4
    Format                      : UTF-8
    Codec ID                    : S_TEXT/UTF8
    Codec ID/Info               : UTF-8 Plain Text
    Duration                    : 1 h 54 min
    Bit rate                    : 0 b/s
    Count of elements           : 22
    Stream size                 : 728 Bytes (0%)
    Title                       : Forzados-SRT [CinemaniaHDD]
    Language                    : Spanish
    Default                     : Yes
    Forced                      : Yes

    Text #2
    ID                          : 5
    Format                      : UTF-8
    Codec ID                    : S_TEXT/UTF8
    Codec ID/Info               : UTF-8 Plain Text
    Duration                    : 1 h 56 min
    Bit rate                    : 35 b/s
    Count of elements           : 988
    Stream size                 : 30.2 KiB (0%)
    Title                       : Español-SRT [CinemaniaHDD]
    Language                    : Spanish
    Default                     : No
    Forced                      : No

    Menu
    00:00:00.000                : :Chapter 01
    00:13:04.417                : :Chapter 02
    00:23:11.833                : :Chapter 03
    00:33:09.292                : :Chapter 04
    00:42:06.542                : :Chapter 05
    00:50:19.875                : :Chapter 06
    00:57:38.750                : :Chapter 07
    01:06:11.083                : :Chapter 08
    01:16:58.667                : :Chapter 09
    01:27:02.667                : :Chapter 10
    01:41:50.208                : :Chapter 11
    01:55:19.042                : :Chapter 12

  • Peso: 3.51 GiB

Sinopsis

Descargar Los tres mosqueteros: D’Artagnan (2023) HD 1080p Latino. D’Artagnan, un intrépido joven, es dado por muerto tras intentar salvar a una joven de ser secuestrada. Cuando llega a París, intenta por todos los medios encontrar a sus agresores. Sin embargo, ignora que su búsqueda le llevará al corazón de una guerra en la que está en juego el futuro de Francia. Junto con Athos, Porthos y Aramis, tres valientes mosqueteros del rey, D’Artagnan se enfrenta a las oscuras maquinaciones del cardenal Richelieu y a la misteriosa Milady de Winter.

Español Latino AC3 2.0 – Frances AC3 5.1

Ficha técnica

Video trailer de la película

Enlaces de descarga

Rip de Bluray

Descargar Los tres mosqueteros: D’Artagnan (2023) HD 1080p Latino




Aportes de DPeliculasHDmega la pass es:dpeliculashdmega.org Aportes de CinemaniaHD la pass es:cinemaniahdd.com Aportes recientes:cinemaniahdd.net
Guardado en : Acción , Aventura , Drama , Historia

Películas relacionadas

descargar Los tres mosqueteros: D’Artagnan (2023) HD 1080p Latino 1080p 1080p gratis, Los tres mosqueteros: D’Artagnan (2023) HD 1080p Latino 1080p mega 1 link, Los tres mosqueteros: D’Artagnan (2023) HD 1080p Latino 1080p pelicula completa, descargar Los tres mosqueteros: D’Artagnan (2023) HD 1080p Latino 1080p gratis en mega.

Los tres mosqueteros: D’Artagnan (2023) HD 1080p Latino pelicula full hd, Los tres mosqueteros: D’Artagnan (2023) HD 1080p Latino mega latino, Los tres mosqueteros: D’Artagnan (2023) HD 1080p Latino 4k latino, Los tres mosqueteros: D’Artagnan (2023) HD 1080p Latino pelicula completa, Los tres mosqueteros: D’Artagnan (2023) HD 1080p Latino descargar gratis, descargar Los tres mosqueteros: D’Artagnan (2023) HD 1080p Latino pelicula latino, Los tres mosqueteros: D’Artagnan (2023) HD 1080p Latino 1 link mega, Los tres mosqueteros: D’Artagnan (2023) HD 1080p Latino 1 link google drive, Los tres mosqueteros: D’Artagnan (2023) HD 1080p Latino hd 1080p latino.
Comentarios 0