×

¿Problemas para descargar con Mozilla, EDGE? Deshabilita la opción "Abrir vinculos en una pestaña nueva" tal como lo muestra ésta imagen.

Los Tipos Malos (2022) AMZN Web-DL 4K UHD HDR Latino

969 vistas

Información de Los Tipos Malos (2022) AMZN Web-DL 4K UHD HDR Latino

Datos de la película

  • Calidad: WEBDL
  • Audio: Español Latino AC3 5.1 WEB-DL - Ingles AC3 5.1 WEB-DL
  • Subtitulos: Español Latino SRT- FORZADOS SRT
  • Resolución: 3840x1600p
  • Formato: MKV
  • Codec: HEVC
  • Encoder: Melkor
  • Mediainfo: Clic para Mostrar Datos Ver
  • Los Tipos Malos (2022) AMZN WEB UHD HDR Latino.mkv
    Format                      : Matroska
    Format version              : Version 4
    File size                   : 11.2 GiB
    Duration                    : 1 h 40 min
    Overall bit rate            : 16.1 Mb/s
    Movie name                  : The Bad Guys (2022) CinemaniaHDD.Net
    Encoded date                : UTC 2022-05-05 05:42:36
    Writing application         : mkvmerge v56.1.0 ('My Friend') 64-bit
    Writing library             : libebml v1.4.2 + libmatroska v1.6.4
    Attachments                 : CINEMANIAHD.png

    Video
    ID                          : 1
    Format                      : HEVC
    Format/Info                 : High Efficiency Video Coding
    Format profile              : Main 10@L5@Main
    HDR format                  : SMPTE ST 2094 App 4, Version 1, HDR10+ Profile B compatible
    Codec ID                    : V_MPEGH/ISO/HEVC
    Duration                    : 1 h 40 min
    Bit rate                    : 15.0 Mb/s
    Width                       : 3 840 pixels
    Height                      : 1 600 pixels
    Display aspect ratio        : 2.40:1
    Frame rate mode             : Constant
    Frame rate                  : 23.976 (24000/1001) FPS
    Color space                 : YUV
    Chroma subsampling          : 4:2:0
    Bit depth                   : 10 bits
    Bits/(Pixel*Frame)          : 0.102
    Stream size                 : 10.5 GiB (93%)
    Title                       : Web 2160p HDR [CinemaniaHDD]
    Language                    : English
    Default                     : Yes
    Forced                      : No
    Color range                 : Limited
    Color primaries             : BT.2020
    Transfer characteristics    : PQ
    Matrix coefficients         : BT.2020 non-constant
    Mastering display color pri : Display P3
    Mastering display luminance : min: 0.0001 cd/m2, max: 1000 cd/m2
    Maximum Content Light Level : 651 cd/m2
    Maximum Frame-Average Light : 240 cd/m2

    Audio #1
    ID                          : 2
    Format                      : AC-3
    Format/Info                 : Audio Coding 3
    Commercial name             : Dolby Digital
    Codec ID                    : A_AC3
    Duration                    : 1 h 40 min
    Bit rate mode               : Constant
    Bit rate                    : 448 kb/s
    Channel(s)                  : 6 channels
    Channel layout              : L R C LFE Ls Rs
    Sampling rate               : 48.0 kHz
    Frame rate                  : 31.250 FPS (1536 SPF)
    Compression mode            : Lossy
    Stream size                 : 321 MiB (3%)
    Title                       : Español Latino [CinemaniaHDD]
    Language                    : Spanish
    Service kind                : Complete Main
    Default                     : Yes
    Forced                      : Yes

    Audio #2
    ID                          : 3
    Format                      : E-AC-3
    Format/Info                 : Enhanced AC-3
    Commercial name             : Dolby Digital Plus
    Codec ID                    : A_EAC3
    Duration                    : 1 h 40 min
    Bit rate mode               : Constant
    Bit rate                    : 640 kb/s
    Channel(s)                  : 6 channels
    Channel layout              : L R C LFE Ls Rs
    Sampling rate               : 48.0 kHz
    Frame rate                  : 31.250 FPS (1536 SPF)
    Compression mode            : Lossy
    Stream size                 : 458 MiB (4%)
    Title                       : Ingles [CinemaniaHDD]
    Language                    : English
    Service kind                : Complete Main
    Default                     : No
    Forced                      : No

    Text #1
    ID                          : 4
    Format                      : UTF-8
    Codec ID                    : S_TEXT/UTF8
    Codec ID/Info               : UTF-8 Plain Text
    Duration                    : 1 h 30 min
    Bit rate                    : 1 b/s
    Count of elements           : 31
    Stream size                 : 851 Bytes (0%)
    Title                       : Forzados-SRT [CinemaniaHDD]
    Language                    : Spanish
    Default                     : Yes
    Forced                      : Yes

    Text #2
    ID                          : 5
    Format                      : UTF-8
    Codec ID                    : S_TEXT/UTF8
    Codec ID/Info               : UTF-8 Plain Text
    Duration                    : 1 h 39 min
    Bit rate                    : 69 b/s
    Count of elements           : 1688
    Stream size                 : 50.7 KiB (0%)
    Title                       : Español-SRT [CinemaniaHDD]
    Language                    : Spanish
    Default                     : No
    Forced                      : No

    Text #3
    ID                          : 6
    Format                      : UTF-8
    Codec ID                    : S_TEXT/UTF8
    Codec ID/Info               : UTF-8 Plain Text
    Duration                    : 1 h 32 min
    Bit rate                    : 73 b/s
    Count of elements           : 1775
    Stream size                 : 49.9 KiB (0%)
    Title                       : Ingles-SRT [CinemaniaHDD]
    Language                    : English
    Default                     : No
    Forced                      : No

  • Peso: 11.2 GiB

Sinopsis

Descargar Los Tipos Malos (2022) AMZN Web-DL 4K UHD HDR Latino. Cinco villanos notorios: el Sr. Wolf, Mr. Snake, Mr. Piranha, Mr. Shark y Ms. Tarantula, que han pasado toda una vida juntos realizando grandes atracos.

Ficha técnica

Video trailer de la película

Enlaces de descarga

Rip de Bluray

Descargar Los Tipos Malos (2022) AMZN Web-DL 4K UHD HDR Latino




Aportes de DPeliculasHDmega la pass es:dpeliculashdmega.org Aportes de CinemaniaHD la pass es:cinemaniahdd.com
Guardado en : 4K HDR , 4K UHD , Acción , Animación , Comedia , Crimen , Familia

Películas relacionadas

descargar Los Tipos Malos (2022) AMZN Web-DL 4K UHD HDR Latino WEBDL 1080p gratis, Los Tipos Malos (2022) AMZN Web-DL 4K UHD HDR Latino WEBDL mega 1 link, Los Tipos Malos (2022) AMZN Web-DL 4K UHD HDR Latino WEBDL pelicula completa, descargar Los Tipos Malos (2022) AMZN Web-DL 4K UHD HDR Latino WEBDL gratis en mega.

Los Tipos Malos (2022) AMZN Web-DL 4K UHD HDR Latino pelicula full hd, Los Tipos Malos (2022) AMZN Web-DL 4K UHD HDR Latino mega latino, Los Tipos Malos (2022) AMZN Web-DL 4K UHD HDR Latino 4k latino, Los Tipos Malos (2022) AMZN Web-DL 4K UHD HDR Latino pelicula completa, Los Tipos Malos (2022) AMZN Web-DL 4K UHD HDR Latino descargar gratis, descargar Los Tipos Malos (2022) AMZN Web-DL 4K UHD HDR Latino pelicula latino, Los Tipos Malos (2022) AMZN Web-DL 4K UHD HDR Latino 1 link mega, Los Tipos Malos (2022) AMZN Web-DL 4K UHD HDR Latino 1 link google drive, Los Tipos Malos (2022) AMZN Web-DL 4K UHD HDR Latino hd 1080p latino.
Comentarios 0