×

¿Problemas para descargar con Mozilla, EDGE? Deshabilita la opción "Abrir vinculos en una pestaña nueva" tal como lo muestra ésta imagen.

Los Tipos Malos (2022) REMUX 1080p Latino

367 vistas

Información de Los Tipos Malos (2022) REMUX 1080p Latino

Datos de la película

  • Calidad: Full 1080p
  • Audio: Se especifica abajo de la Sinopsis
  • Subtitulos: Español Latino SRT- FORZADOS SRT
  • Resolución: 1920x1080p
  • Formato: MKV
  • Codec: H.264
  • Encoder: Melkor
  • Mediainfo: Clic para Mostrar Datos Ver
  • Los Tipos Malos (2022) REMUX 1080p Latino.mkv
    Format                      : Matroska
    Format version              : Version 4
    File size                   : 24.5 GiB
    Duration                    : 1 h 40 min
    Overall bit rate mode       : Variable
    Overall bit rate            : 35.0 Mb/s
    Movie name                  : The Bad Guys (2022) CinemaniaHDD.Net
    Encoded date                : UTC 2022-05-21 07:58:38
    Writing application         : mkvmerge v56.1.0 ('My Friend') 64-bit
    Writing library             : libebml v1.4.2 + libmatroska v1.6.4
    Attachments                 : CINEMANIAHD.png

    Video
    ID                          : 1
    ID in the original source m : 4113 (0x1011)
    Format                      : AVC
    Format/Info                 : Advanced Video Codec
    Format profile              : High@L4.1
    Format settings             : CABAC / 2 Ref Frames
    Format settings, CABAC      : Yes
    Format settings, Reference  : 2 frames
    Codec ID                    : V_MPEG4/ISO/AVC
    Duration                    : 1 h 40 min
    Bit rate mode               : Variable
    Bit rate                    : 30.9 Mb/s
    Width                       : 1 920 pixels
    Height                      : 1 080 pixels
    Display aspect ratio        : 16:9
    Frame rate mode             : Constant
    Frame rate                  : 23.976 (24000/1001) FPS
    Color space                 : YUV
    Chroma subsampling          : 4:2:0
    Bit depth                   : 8 bits
    Scan type                   : Progressive
    Bits/(Pixel*Frame)          : 0.621
    Stream size                 : 21.6 GiB (88%)
    Title                       : REMUX HD1080p [CinemaniaHDD]
    Default                     : Yes
    Forced                      : Yes
    Original source medium      : Blu-ray

    Audio #1
    ID                          : 2
    Format                      : AC-3
    Format/Info                 : Audio Coding 3
    Commercial name             : Dolby Digital
    Codec ID                    : A_AC3
    Duration                    : 1 h 40 min
    Bit rate mode               : Constant
    Bit rate                    : 448 kb/s
    Channel(s)                  : 6 channels
    Channel layout              : L R C LFE Ls Rs
    Sampling rate               : 48.0 kHz
    Frame rate                  : 31.250 FPS (1536 SPF)
    Compression mode            : Lossy
    Delay relative to video     : 25 ms
    Stream size                 : 321 MiB (1%)
    Title                       : Español Latino [CinemaniaHDD]
    Language                    : Spanish
    Service kind                : Complete Main
    Default                     : Yes
    Forced                      : Yes

    Audio #2
    ID                          : 3
    ID in the original source m : 4352 (0x1100)
    Format                      : MLP FBA 16-ch
    Format/Info                 : Meridian Lossless Packing FBA with 16-channel presentation
    Commercial name             : Dolby TrueHD with Dolby Atmos
    Codec ID                    : A_TRUEHD
    Duration                    : 1 h 40 min
    Bit rate mode               : Variable
    Bit rate                    : 3 166 kb/s
    Maximum bit rate            : 4 686 kb/s
    Channel(s)                  : 8 channels
    Channel layout              : L R C LFE Ls Rs Lb Rb
    Sampling rate               : 48.0 kHz
    Frame rate                  : 1 200.000 FPS (40 SPF)
    Compression mode            : Lossless
    Stream size                 : 2.21 GiB (9%)
    Title                       : Ingles [CinemaniaHDD]
    Language                    : English
    Default                     : No
    Forced                      : No
    Original source medium      : Blu-ray
    Number of dynamic objects   : 11
    Bed channel count           : 1 channel
    Bed channel configuration   : LFE

    Audio #3
    ID                          : 4
    ID in the original source m : 4352 (0x1100)
    Format                      : AC-3
    Format/Info                 : Audio Coding 3
    Commercial name             : Dolby Digital
    Codec ID                    : A_AC3
    Duration                    : 1 h 40 min
    Bit rate mode               : Constant
    Bit rate                    : 448 kb/s
    Channel(s)                  : 6 channels
    Channel layout              : L R C LFE Ls Rs
    Sampling rate               : 48.0 kHz
    Frame rate                  : 31.250 FPS (1536 SPF)
    Compression mode            : Lossy
    Stream size                 : 321 MiB (1%)
    Title                       : Ingles-AC3 [CinemaniaHDD]
    Language                    : English
    Service kind                : Complete Main
    Default                     : No
    Forced                      : No
    Original source medium      : Blu-ray

    Text #1
    ID                          : 5
    Format                      : UTF-8
    Codec ID                    : S_TEXT/UTF8
    Codec ID/Info               : UTF-8 Plain Text
    Duration                    : 1 h 30 min
    Bit rate                    : 1 b/s
    Count of elements           : 31
    Stream size                 : 851 Bytes (0%)
    Title                       : Forzados-SRT [CinemaniaHDD]
    Language                    : Spanish
    Default                     : Yes
    Forced                      : Yes

    Text #2
    ID                          : 6
    Format                      : UTF-8
    Codec ID                    : S_TEXT/UTF8
    Codec ID/Info               : UTF-8 Plain Text
    Duration                    : 1 h 39 min
    Bit rate                    : 69 b/s
    Count of elements           : 1688
    Stream size                 : 50.7 KiB (0%)
    Title                       : Español-SRT [CinemaniaHDD]
    Language                    : Spanish
    Default                     : No
    Forced                      : No

    Text #3
    ID                          : 7
    ID in the original source m : 4608 (0x1200)
    Format                      : PGS
    Muxing mode                 : zlib
    Codec ID                    : S_HDMV/PGS
    Codec ID/Info               : Picture based subtitle format used on BDs/HD-DVDs
    Duration                    : 1 h 39 min
    Bit rate                    : 57.6 kb/s
    Count of elements           : 3934
    Stream size                 : 40.9 MiB (0%)
    Title                       : Ingles [CinemaniaHDD]
    Language                    : English
    Default                     : No
    Forced                      : No
    Original source medium      : Blu-ray

    Menu
    00:00:00.000                : Chapter 01
    00:03:09.439                : Chapter 02
    00:09:08.965                : Chapter 03
    00:14:07.847                : Chapter 04
    00:20:35.484                : Chapter 05
    00:27:24.976                : Chapter 06
    00:32:08.927                : Chapter 07
    00:36:16.549                : Chapter 08
    00:41:26.775                : Chapter 09
    00:45:50.164                : Chapter 10
    00:49:08.820                : Chapter 11
    00:55:01.089                : Chapter 12
    00:58:38.890                : Chapter 13
    01:05:41.020                : Chapter 14
    01:10:36.232                : Chapter 15
    01:12:40.439                : Chapter 16
    01:15:45.165                : Chapter 17
    01:20:25.195                : Chapter 18
    01:25:28.832                : Chapter 19
    01:30:56.325                : Chapter 20

  • Peso: 24.5 GiB

Sinopsis

Descargar Los Tipos Malos (2022) REMUX 1080p Latino. Cinco villanos notorios: el Sr. Wolf, Mr. Snake, Mr. Piranha, Mr. Shark y Ms. Tarantula, que han pasado toda una vida juntos realizando grandes atracos.

Español Latino AC3 5.1 Web – Ingles TrueHD 7.1 & AC3 5.1 Bluray

Nota: Disponible Solo Para VIP!!!

Ficha técnica

Video trailer de la película

Enlaces de descarga

Rip de Bluray

Descargar Los Tipos Malos (2022) REMUX 1080p Latino


Aportes de DPeliculasHDmega la pass es:dpeliculashdmega.org Aportes de CinemaniaHD la pass es:cinemaniahdd.com
Guardado en : Acción , Animación , Comedia , Crimen , Familia , Remux

Películas relacionadas

descargar Los Tipos Malos (2022) REMUX 1080p Latino Full 1080p 1080p gratis, Los Tipos Malos (2022) REMUX 1080p Latino Full 1080p mega 1 link, Los Tipos Malos (2022) REMUX 1080p Latino Full 1080p pelicula completa, descargar Los Tipos Malos (2022) REMUX 1080p Latino Full 1080p gratis en mega.

Los Tipos Malos (2022) REMUX 1080p Latino pelicula full hd, Los Tipos Malos (2022) REMUX 1080p Latino mega latino, Los Tipos Malos (2022) REMUX 1080p Latino 4k latino, Los Tipos Malos (2022) REMUX 1080p Latino pelicula completa, Los Tipos Malos (2022) REMUX 1080p Latino descargar gratis, descargar Los Tipos Malos (2022) REMUX 1080p Latino pelicula latino, Los Tipos Malos (2022) REMUX 1080p Latino 1 link mega, Los Tipos Malos (2022) REMUX 1080p Latino 1 link google drive, Los Tipos Malos (2022) REMUX 1080p Latino hd 1080p latino.
Comentarios 0