×

¿Problemas para descargar con Mozilla, EDGE? Deshabilita la opción "Abrir vinculos en una pestaña nueva" tal como lo muestra ésta imagen.

Los Tipos Malos (2022) PLACEBO Full HD 1080p Latino

770 vistas

Información de Los Tipos Malos (2022) PLACEBO Full HD 1080p Latino

Datos de la película

  • Calidad: Full 1080p
  • Audio: Español Latino AC3 5.1 WEB-DL - Ingles AC3 5.1 BLURAY
  • Subtitulos: Español Latino SRT- FORZADOS SRT
  • Resolución: 1920x1080p
  • Formato: MKV
  • Codec: H.264
  • Encoder: Melkor
  • Mediainfo: Clic para Mostrar Datos Ver
  • Los Tipos Malos (2022) PLACEBO 1080p Latino.mkv
    Format                      : Matroska
    Format version              : Version 4
    File size                   : 9.92 GiB
    Duration                    : 1 h 40 min
    Overall bit rate            : 14.2 Mb/s
    Movie name                  : The Bad Guys (2022) CinemaniaHDD.Net
    Encoded date                : UTC 2022-05-21 20:48:28
    Writing application         : mkvmerge v56.1.0 ('My Friend') 64-bit
    Writing library             : libebml v1.4.2 + libmatroska v1.6.4
    Attachments                 : CINEMANIAHD.png

    Video
    ID                          : 1
    Format                      : AVC
    Format/Info                 : Advanced Video Codec
    Format profile              : High@L4.1
    Format settings             : CABAC / 4 Ref Frames
    Format settings, CABAC      : Yes
    Format settings, Reference  : 4 frames
    Codec ID                    : V_MPEG4/ISO/AVC
    Duration                    : 1 h 40 min
    Bit rate                    : 13.3 Mb/s
    Width                       : 1 920 pixels
    Height                      : 1 080 pixels
    Display aspect ratio        : 16:9
    Frame rate mode             : Constant
    Frame rate                  : 23.976 (24000/1001) FPS
    Color space                 : YUV
    Chroma subsampling          : 4:2:0
    Bit depth                   : 8 bits
    Scan type                   : Progressive
    Bits/(Pixel*Frame)          : 0.267
    Stream size                 : 9.27 GiB (93%)
    Title                       : Full HD1080p [CinemaniaHDD]
    Writing library             : x264 core 163 r3059 b684ebe0
    Encoding settings           : cabac=1 / ref=4 / deblock=1:0:0 / analyse=0x3:0x133 / me=tesa / subme=11 / psy=1 / psy_rd=1.00:0.00 / mixed_ref=1 / me_range=24 / chroma_me=1 / trellis=2 / 8x8dct=1 / cqm=0 / deadzone=21,11 / fast_pskip=0 / chroma_qp_offset=-2 / threads=24 / lookahead_threads=6 / sliced_threads=0 / nr=0 / decimate=1 / interlaced=0 / bluray_compat=0 / constrained_intra=0 / bframes=16 / b_pyramid=2 / b_adapt=2 / b_bias=0 / direct=3 / weightb=1 / open_gop=0 / weightp=2 / keyint=240 / keyint_min=24 / scenecut=40 / intra_refresh=0 / rc_lookahead=60 / rc=crf / mbtree=1 / crf=18.5 / qcomp=0.60 / qpmin=0 / qpmax=69 / qpstep=4 / vbv_maxrate=62500 / vbv_bufsize=78125 / crf_max=0.0 / nal_hrd=none / filler=0 / ip_ratio=1.40 / aq=1:1.00
    Default                     : Yes
    Forced                      : Yes
    Color range                 : Limited
    Color primaries             : BT.709
    Transfer characteristics    : BT.709
    Matrix coefficients         : BT.709

    Audio #1
    ID                          : 2
    Format                      : AC-3
    Format/Info                 : Audio Coding 3
    Commercial name             : Dolby Digital
    Codec ID                    : A_AC3
    Duration                    : 1 h 40 min
    Bit rate mode               : Constant
    Bit rate                    : 448 kb/s
    Channel(s)                  : 6 channels
    Channel layout              : L R C LFE Ls Rs
    Sampling rate               : 48.0 kHz
    Frame rate                  : 31.250 FPS (1536 SPF)
    Compression mode            : Lossy
    Delay relative to video     : 25 ms
    Stream size                 : 321 MiB (3%)
    Title                       : Español Latino [CinemaniaHDD]
    Language                    : Spanish
    Service kind                : Complete Main
    Default                     : Yes
    Forced                      : Yes

    Audio #2
    ID                          : 3
    ID in the original source m : 4352 (0x1100)
    Format                      : AC-3
    Format/Info                 : Audio Coding 3
    Commercial name             : Dolby Digital
    Codec ID                    : A_AC3
    Duration                    : 1 h 40 min
    Bit rate mode               : Constant
    Bit rate                    : 448 kb/s
    Channel(s)                  : 6 channels
    Channel layout              : L R C LFE Ls Rs
    Sampling rate               : 48.0 kHz
    Frame rate                  : 31.250 FPS (1536 SPF)
    Compression mode            : Lossy
    Stream size                 : 321 MiB (3%)
    Title                       : Ingles-AC3 [CinemaniaHDD]
    Language                    : English
    Service kind                : Complete Main
    Default                     : No
    Forced                      : No
    Original source medium      : Blu-ray

    Text #1
    ID                          : 4
    Format                      : UTF-8
    Codec ID                    : S_TEXT/UTF8
    Codec ID/Info               : UTF-8 Plain Text
    Duration                    : 1 h 30 min
    Bit rate                    : 1 b/s
    Count of elements           : 31
    Stream size                 : 851 Bytes (0%)
    Title                       : Forzados-SRT [CinemaniaHDD]
    Language                    : Spanish
    Default                     : Yes
    Forced                      : Yes

    Text #2
    ID                          : 5
    Format                      : UTF-8
    Codec ID                    : S_TEXT/UTF8
    Codec ID/Info               : UTF-8 Plain Text
    Duration                    : 1 h 39 min
    Bit rate                    : 69 b/s
    Count of elements           : 1688
    Stream size                 : 50.7 KiB (0%)
    Title                       : Español-SRT [CinemaniaHDD]
    Language                    : Spanish
    Default                     : No
    Forced                      : No

    Text #3
    ID                          : 6
    ID in the original source m : 4608 (0x1200)
    Format                      : PGS
    Muxing mode                 : zlib
    Codec ID                    : S_HDMV/PGS
    Codec ID/Info               : Picture based subtitle format used on BDs/HD-DVDs
    Duration                    : 1 h 39 min
    Bit rate                    : 57.6 kb/s
    Count of elements           : 3934
    Stream size                 : 40.9 MiB (0%)
    Title                       : Ingles [CinemaniaHDD]
    Language                    : English
    Default                     : No
    Forced                      : No
    Original source medium      : Blu-ray

    Menu
    00:00:00.000                : Chapter 01
    00:03:09.439                : Chapter 02
    00:09:08.965                : Chapter 03
    00:14:07.847                : Chapter 04
    00:20:35.484                : Chapter 05
    00:27:24.976                : Chapter 06
    00:32:08.927                : Chapter 07
    00:36:16.549                : Chapter 08
    00:41:26.775                : Chapter 09
    00:45:50.164                : Chapter 10
    00:49:08.820                : Chapter 11
    00:55:01.089                : Chapter 12
    00:58:38.890                : Chapter 13
    01:05:41.020                : Chapter 14
    01:10:36.232                : Chapter 15
    01:12:40.439                : Chapter 16
    01:15:45.165                : Chapter 17
    01:20:25.195                : Chapter 18
    01:25:28.832                : Chapter 19
    01:30:56.325                : Chapter 20

  • Peso: 9.92 GiB

Sinopsis

Descargar Los Tipos Malos (2022) PLACEBO Full HD 1080p Latino. Cinco villanos notorios: el Sr. Wolf, Mr. Snake, Mr. Piranha, Mr. Shark y Ms. Tarantula, que han pasado toda una vida juntos realizando grandes atracos.

Ficha técnica

Video trailer de la película

Enlaces de descarga

Rip de Bluray

Descargar Los Tipos Malos (2022) PLACEBO Full HD 1080p Latino




Aportes de DPeliculasHDmega la pass es:dpeliculashdmega.org Aportes de CinemaniaHD la pass es:cinemaniahdd.com

Películas relacionadas

descargar Los Tipos Malos (2022) PLACEBO Full HD 1080p Latino Full 1080p 1080p gratis, Los Tipos Malos (2022) PLACEBO Full HD 1080p Latino Full 1080p mega 1 link, Los Tipos Malos (2022) PLACEBO Full HD 1080p Latino Full 1080p pelicula completa, descargar Los Tipos Malos (2022) PLACEBO Full HD 1080p Latino Full 1080p gratis en mega.

Los Tipos Malos (2022) PLACEBO Full HD 1080p Latino pelicula full hd, Los Tipos Malos (2022) PLACEBO Full HD 1080p Latino mega latino, Los Tipos Malos (2022) PLACEBO Full HD 1080p Latino 4k latino, Los Tipos Malos (2022) PLACEBO Full HD 1080p Latino pelicula completa, Los Tipos Malos (2022) PLACEBO Full HD 1080p Latino descargar gratis, descargar Los Tipos Malos (2022) PLACEBO Full HD 1080p Latino pelicula latino, Los Tipos Malos (2022) PLACEBO Full HD 1080p Latino 1 link mega, Los Tipos Malos (2022) PLACEBO Full HD 1080p Latino 1 link google drive, Los Tipos Malos (2022) PLACEBO Full HD 1080p Latino hd 1080p latino.
Comentarios 0