Los Siete Pecados Capitales: Prisioneros del cielo (2018) NF HD 1080p Latino

1.495 vistas
1 estrella2 estrellas3 estrellas4 estrellas5 estrellas (3 votos, promedio: 3,67 de 5)
Cargando…

Información de Los Siete Pecados Capitales: Prisioneros del cielo (2018) NF HD 1080p Latino

Datos de la película

  • Calidad: WEBDL
  • Audio: Español Latino AC3 5.1 Netflix - Ingles AC3 5.1 Netflix
  • Subtitulos: Español Latino SRT
  • Resolución: 1920x1080
  • Formato: MKV
  • Codec: H.264
  • Encoder: CMRG
  • Mediainfo: Clic para Mostrar Datos Ver
  • The Seven Deadly Sins the Movie (2018) NF 1080p Latino.mkv
    Format                      : Matroska
    Format version              : Version 4
    File size                   : 3.46 GiB
    Duration                    : 1 h 39 min
    Overall bit rate mode       : Variable
    Overall bit rate            : 4 968 kb/s
    Movie name                  : Cinemaniahdd.net
    Encoded date                : UTC 2019-01-01 18:44:34
    Writing application         : mkvmerge v29.0.0 ('Like It Or Not') 64-bit
    Writing library             : libebml v1.3.6 + libmatroska v1.4.9

    Video
    ID                          : 1
    Format                      : AVC
    Format/Info                 : Advanced Video Codec
    Format profile              : [email protected]
    Format settings             : CABAC / 3 Ref Frames
    Format settings, CABAC      : Yes
    Format settings, ReFrames   : 3 frames
    Codec ID                    : V_MPEG4/ISO/AVC
    Duration                    : 1 h 39 min
    Bit rate mode               : Variable
    Bit rate                    : 4 220 kb/s
    Maximum bit rate            : 6 330 kb/s
    Width                       : 1 920 pixels
    Height                      : 1 080 pixels
    Display aspect ratio        : 16:9
    Frame rate mode             : Constant
    Frame rate                  : 23.976 (24000/1001) FPS
    Color space                 : YUV
    Chroma subsampling          : 4:2:0
    Bit depth                   : 8 bits
    Scan type                   : Progressive
    Bits/(Pixel*Frame)          : 0.085
    Stream size                 : 2.92 GiB (84%)
    Writing library             : x264 core 148 r2715 7e75228
    Encoding settings           : cabac=1 / ref=3 / deblock=1:0:0 / analyse=0x1:0x111 / me=umh / subme=10 / psy=1 / psy_rd=1.00:0.00 / mixed_ref=1 / me_range=24 / chroma_me=1 / trellis=2 / 8x8dct=0 / cqm=0 / deadzone=21,11 / fast_pskip=1 / chroma_qp_offset=-2 / threads=8 / lookahead_threads=1 / sliced_threads=0 / nr=0 / decimate=1 / interlaced=0 / bluray_compat=0 / stitchable=1 / constrained_intra=0 / bframes=2 / b_pyramid=0 / b_adapt=2 / b_bias=0 / direct=3 / weightb=1 / open_gop=0 / weightp=2 / keyint=48 / keyint_min=25 / scenecut=0 / intra_refresh=0 / rc_lookahead=48 / rc=2pass / mbtree=1 / bitrate=4220 / ratetol=1.0 / qcomp=0.50 / qpmin=6 / qpmax=51 / qpstep=4 / cplxblur=20.0 / qblur=0.5 / vbv_maxrate=6330 / vbv_bufsize=8440 / nal_hrd=vbr / filler=0 / ip_ratio=1.40 / aq=1:1.00
    Default                     : Yes
    Forced                      : No

    Audio #1
    ID                          : 2
    Format                      : AC-3
    Format/Info                 : Audio Coding 3
    Commercial name             : Dolby Digital
    Codec ID                    : A_AC3
    Duration                    : 1 h 39 min
    Bit rate mode               : Constant
    Bit rate                    : 384 kb/s
    Channel(s)                  : 6 channels
    Channel layout              : L R C LFE Ls Rs
    Sampling rate               : 48.0 kHz
    Frame rate                  : 31.250 FPS (1536 SPF)
    Bit depth                   : 16 bits
    Compression mode            : Lossy
    Stream size                 : 274 MiB (8%)
    Service kind                : Complete Main
    Default                     : Yes
    Forced                      : No

    Audio #2
    ID                          : 3
    Format                      : AC-3
    Format/Info                 : Audio Coding 3
    Commercial name             : Dolby Digital
    Codec ID                    : A_AC3
    Duration                    : 1 h 39 min
    Bit rate mode               : Constant
    Bit rate                    : 384 kb/s
    Channel(s)                  : 6 channels
    Channel layout              : L R C LFE Ls Rs
    Sampling rate               : 48.0 kHz
    Frame rate                  : 31.250 FPS (1536 SPF)
    Bit depth                   : 16 bits
    Compression mode            : Lossy
    Stream size                 : 274 MiB (8%)
    Service kind                : Complete Main
    Default                     : No
    Forced                      : No

    Text
    ID                          : 4
    Format                      : UTF-8
    Codec ID                    : S_TEXT/UTF8
    Codec ID/Info               : UTF-8 Plain Text
    Duration                    : 1 h 38 min
    Bit rate                    : 52 b/s
    Count of elements           : 1321
    Stream size                 : 38.2 KiB (0%)
    Title                       : Español Latino
    Language                    : Spanish
    Default                     : No
    Forced                      : No

  • Peso: 3.46 GiB

Sinopsis

Descargar Los Siete Pecados Capitales: Prisioneros del cielo (2018) NF HD 1080p Latino, Mega, Google Drive, Torrent. Viajando en busca del ingrediente raro, “pez cielo” Meliodas y Hawk llegan a un palacio que flota sobre las nubes. La gente de allí está ocupada preparando una ceremonia, destinada a proteger su hogar de una feroz bestia que se despierta una vez cada 3.000 años. Pero antes de que se complete el ritual, los Seis Caballeros de Negro, un ejército del Clan Demonio, quitan el sello a la bestia y amenazan la vida de todos en el Palacio del Cielo.

Para celebrar el cumpleaños del Rey Bartra de Liones, los Siete Pecados Capitales llegaron a un territorio fronterizo en busca de un ingrediente exótico, el pez celeste. En medio de su búsqueda, Meliodas y Hawk son enviados al Templo del Cielo, el mundo celestial que se encuentra en lo alto del cielo, sobre las nubes.

Meliodas fue confundido por ellos como el joven que violó una ley y fue encarcelado. En el Templo del Cielo se está preparando la ceremonia para prevenir la liberación de la bestia feroz que ha sido encerrada durante tres mil años. Pero un fuerte grupo de Demonios conocidos como “Los Seis Caballeros Negros” liderados por Bellion aparecen para erradicar la vida de los Celestiales y así romper el sello. Meliodas y los demás se enfrentan contra los Seis Caballeros Negros para evitar el caos.

Ficha técnica

Video trailer de la película

Enlaces de descarga

Rip de Bluray

Descargar Los Siete Pecados Capitales: Prisioneros del cielo (2018) NF HD 1080p Latino




Aportes de DPeliculasHDmega la pass es:dpeliculashdmega.org Aportes de CinemaniaHD la pass es:cinemaniahdd.com

Películas relacionadas

Comentarios 0