×

¿Problemas para descargar con Mozilla, EDGE? Deshabilita la opción "Abrir vinculos en una pestaña nueva" tal como lo muestra ésta imagen.

Los Secretos Que Guardamos (2020) AMZN Web-DL 1080p Latino

220 vistas

Información de Los Secretos Que Guardamos (2020) AMZN Web-DL 1080p Latino

Datos de la película

  • Calidad: WEBDL
  • Audio: Español Latino AC3 5.1 AMAZON - Ingles AC3 5.1 AMAZON
  • Subtitulos: Español Latino SRT- FORZADOS SRT
  • Resolución: 1920x800p
  • Formato: MKV
  • Codec: H.264
  • Encoder: Melkor
  • Mediainfo: Clic para Mostrar Datos Ver
  • Los Secretos Que Guardamos (2020) AMZN Web-DL 1080p Latino.mkv
    Format                      : Matroska
    Format version              : Version 4
    File size                   : 7.26 GiB
    Duration                    : 1 h 38 min
    Overall bit rate            : 10.6 Mb/s
    Movie name                  : The Secrets We Keep (2020) CinemaniaHDD.Net
    Encoded date                : UTC 2021-01-07 04:45:22
    Writing application         : mkvmerge v51.0.0 ('I Wish') 64-bit
    Writing library             : libebml v1.4.0 + libmatroska v1.6.2
    Attachments                 : CINEMANIAHD.png

    Video
    ID                          : 1
    Format                      : AVC
    Format/Info                 : Advanced Video Codec
    Format profile              : High@L4
    Format settings             : CABAC / 4 Ref Frames
    Format settings, CABAC      : Yes
    Format settings, Reference  : 4 frames
    Codec ID                    : V_MPEG4/ISO/AVC
    Duration                    : 1 h 38 min
    Bit rate mode               : Constant
    Bit rate                    : 9 281 kb/s
    Nominal bit rate            : 10 000 kb/s
    Width                       : 1 920 pixels
    Height                      : 800 pixels
    Display aspect ratio        : 2.40:1
    Frame rate mode             : Constant
    Frame rate                  : 23.976 (24000/1001) FPS
    Color space                 : YUV
    Chroma subsampling          : 4:2:0
    Bit depth                   : 8 bits
    Scan type                   : Progressive
    Bits/(Pixel*Frame)          : 0.252
    Stream size                 : 6.37 GiB (88%)
    Title                       : WEB HD1080p [CinemaniaHDD]
    Default                     : Yes
    Forced                      : No
    Color range                 : Limited
    Color primaries             : BT.709
    Transfer characteristics    : BT.709
    Matrix coefficients         : BT.709

    Audio #1
    ID                          : 2
    Format                      : AC-3
    Format/Info                 : Audio Coding 3
    Commercial name             : Dolby Digital
    Codec ID                    : A_AC3
    Duration                    : 1 h 38 min
    Bit rate mode               : Constant
    Bit rate                    : 640 kb/s
    Channel(s)                  : 6 channels
    Channel layout              : L R C LFE Ls Rs
    Sampling rate               : 48.0 kHz
    Frame rate                  : 31.250 FPS (1536 SPF)
    Compression mode            : Lossy
    Stream size                 : 450 MiB (6%)
    Title                       : Español Latino [CinemaniaHDD]
    Language                    : Spanish
    Service kind                : Complete Main
    Default                     : Yes
    Forced                      : No

    Audio #2
    ID                          : 3
    Format                      : E-AC-3
    Format/Info                 : Enhanced AC-3
    Commercial name             : Dolby Digital Plus
    Codec ID                    : A_EAC3
    Duration                    : 1 h 38 min
    Bit rate mode               : Constant
    Bit rate                    : 640 kb/s
    Channel(s)                  : 6 channels
    Channel layout              : L R C LFE Ls Rs
    Sampling rate               : 48.0 kHz
    Frame rate                  : 31.250 FPS (1536 SPF)
    Compression mode            : Lossy
    Stream size                 : 450 MiB (6%)
    Title                       : Ingles [CinemaniaHDD]
    Language                    : English
    Service kind                : Complete Main
    Default                     : No
    Forced                      : No

    Text #1
    ID                          : 4
    Format                      : UTF-8
    Codec ID                    : S_TEXT/UTF8
    Codec ID/Info               : UTF-8 Plain Text
    Duration                    : 1 h 22 min
    Bit rate                    : 0 b/s
    Count of elements           : 6
    Stream size                 : 164 Bytes (0%)
    Title                       : Forzados-SRT [CinemaniaHDD]
    Language                    : Spanish
    Default                     : Yes
    Forced                      : No

    Text #2
    ID                          : 5
    Format                      : UTF-8
    Codec ID                    : S_TEXT/UTF8
    Codec ID/Info               : UTF-8 Plain Text
    Duration                    : 1 h 30 min
    Bit rate                    : 42 b/s
    Count of elements           : 1048
    Stream size                 : 28.3 KiB (0%)
    Title                       : Español-SRT [CinemaniaHDD]
    Language                    : Spanish
    Default                     : No
    Forced                      : No

    Text #3
    ID                          : 6
    Format                      : UTF-8
    Codec ID                    : S_TEXT/UTF8
    Codec ID/Info               : UTF-8 Plain Text
    Duration                    : 1 h 29 min
    Bit rate                    : 44 b/s
    Count of elements           : 998
    Stream size                 : 29.2 KiB (0%)
    Title                       : Ingles-SRT [CinemaniaHDD]
    Language                    : English
    Default                     : No
    Forced                      : No

  • Peso: 7.26 GiB

Sinopsis

Descargar Los Secretos Que Guardamos (2020) AMZN Web-DL 1080p Latino. En la América posterior a la Segunda Guerra Mundial, una mujer, reconstruyendo su vida en los suburbios con su esposo, secuestra a su vecino y busca venganza por los atroces crímenes de guerra que cree que él cometió contra ella.

Ficha técnica

  • Titulo original: The Secrets We Keep
  • Fecha de lanzamiento: 16-09-2020 (United States of America)
  • Director: Yuval Adler
  • Género: Drama, Suspenso

Video trailer de la película

Enlaces de descarga

Rip de Bluray

Descargar Los Secretos Que Guardamos (2020) AMZN Web-DL 1080p Latino




Aportes de DPeliculasHDmega la pass es:dpeliculashdmega.org Aportes de CinemaniaHD la pass es:cinemaniahdd.com
Guardado en : Drama , Suspenso

Películas relacionadas

  • Wire Room (2022) HD 1080p Latino

    Wire Room (2022) HD 1080p Latino

    2022
    Wire Room (2022) HD 1080p Latino

    1h 37m 2022

    Descargar Wire Room (2022) HD 1080p Latino. Mientras está de servicio en la sala de cables, un agente...

    Director: Matt Eskandari

    Género: Acción

    Actores: Texas Battle

  • Wire Room (2022) PLACEBO Full HD 1080p Latino

    Wire Room (2022) PLACEBO Full HD 1080p Latino

    2022
    Wire Room (2022) PLACEBO Full HD 1080p Latino

    1h 37m 2022

    Descargar Wire Room (2022) PLACEBO Full HD 1080p Latino. Mientras está de servicio en la sala de cables,...

    Director: Matt Eskandari

    Género: Acción

    Actores: Texas Battle

  • Wire Room (2022) REMUX 1080p Latino

    Wire Room (2022) REMUX 1080p Latino

    2022
    Wire Room (2022) REMUX 1080p Latino

    1h 37m 2022

    Descargar Wire Room (2022) REMUX 1080p Latino. Mientras está de servicio en la sala de cables, un agente...

    Director: Matt Eskandari

    Género: Acción

    Actores: Texas Battle

descargar Los Secretos Que Guardamos (2020) AMZN Web-DL 1080p Latino WEBDL 1080p gratis, Los Secretos Que Guardamos (2020) AMZN Web-DL 1080p Latino WEBDL mega 1 link, Los Secretos Que Guardamos (2020) AMZN Web-DL 1080p Latino WEBDL pelicula completa, descargar Los Secretos Que Guardamos (2020) AMZN Web-DL 1080p Latino WEBDL gratis en mega.

Los Secretos Que Guardamos (2020) AMZN Web-DL 1080p Latino pelicula full hd, Los Secretos Que Guardamos (2020) AMZN Web-DL 1080p Latino mega latino, Los Secretos Que Guardamos (2020) AMZN Web-DL 1080p Latino 4k latino, Los Secretos Que Guardamos (2020) AMZN Web-DL 1080p Latino pelicula completa, Los Secretos Que Guardamos (2020) AMZN Web-DL 1080p Latino descargar gratis, descargar Los Secretos Que Guardamos (2020) AMZN Web-DL 1080p Latino pelicula latino, Los Secretos Que Guardamos (2020) AMZN Web-DL 1080p Latino 1 link mega, Los Secretos Que Guardamos (2020) AMZN Web-DL 1080p Latino 1 link google drive, Los Secretos Que Guardamos (2020) AMZN Web-DL 1080p Latino hd 1080p latino.
Comentarios 0