×

¿Problemas para descargar con Mozilla, EDGE? Deshabilita la opción "Abrir vinculos en una pestaña nueva" tal como lo muestra ésta imagen.

Los que se quedan (2023) MA WEB-DL 1080p Latino

110 vistas

Información de Los que se quedan (2023) MA WEB-DL 1080p Latino

Datos de la película

  • Calidad: WEBDL
  • Audio: Español Latino AC3 5.1 WEB-DL - Ingles AC3 5.1 WEB-DL
  • Subtitulos: Español Latino SRT- FORZADOS SRT
  • Resolución: 1920x1080p
  • Formato: MKV
  • Codec: H.264
  • Encoder: Melkor
  • Mediainfo: Clic para Mostrar Datos Ver
  • Los Que Se Quedan (2023) MA WEB 1080p Latino.mkv
    Format                      : Matroska
    Format version              : Version 4
    File size                   : 8.40 GiB
    Duration                    : 2 h 13 min
    Overall bit rate            : 9 010 kb/s
    Movie name                  : The Holdovers (2023) CinemaniaHDD.Net
    Encoded date                : UTC 2023-11-30 08:32:31
    Writing application         : mkvmerge v56.1.0 ('My Friend') 64-bit
    Writing library             : libebml v1.4.2 + libmatroska v1.6.4
    Attachments                 : CINEMANIAHD.png
    Site                        : CinemaniaHDD.Net
    Uploader                    : Melkor

    Video
    ID                          : 1
    Format                      : AVC
    Format/Info                 : Advanced Video Codec
    Format profile              : High@L4
    Format settings             : CABAC / 4 Ref Frames
    Format settings, CABAC      : Yes
    Format settings, Reference  : 4 frames
    Codec ID                    : V_MPEG4/ISO/AVC
    Duration                    : 2 h 13 min
    Bit rate                    : 8 000 kb/s
    Width                       : 1 920 pixels
    Height                      : 1 080 pixels
    Display aspect ratio        : 16:9
    Frame rate mode             : Constant
    Frame rate                  : 23.976 (24000/1001) FPS
    Color space                 : YUV
    Chroma subsampling          : 4:2:0
    Bit depth                   : 8 bits
    Scan type                   : Progressive
    Bits/(Pixel*Frame)          : 0.161
    Stream size                 : 7.44 GiB (89%)
    Title                       : Web HD1080p [CinemaniaHDD]
    Writing library             : x264 core 164 r3094 bfc87b7
    Encoding settings           : cabac=1 / ref=4 / deblock=1:-1:-1 / analyse=0x3:0x133 / me=umh / subme=9 / psy=1 / psy_rd=1.00:0.15 / mixed_ref=1 / me_range=16 / chroma_me=1 / trellis=2 / 8x8dct=1 / cqm=0 / deadzone=21,11 / fast_pskip=1 / chroma_qp_offset=-3 / threads=12 / lookahead_threads=1 / sliced_threads=0 / nr=0 / decimate=1 / interlaced=0 / bluray_compat=0 / stitchable=1 / constrained_intra=0 / bframes=3 / b_pyramid=2 / b_adapt=2 / b_bias=0 / direct=3 / weightb=1 / open_gop=0 / weightp=2 / keyint=48 / keyint_min=4 / scenecut=0 / intra_refresh=0 / rc_lookahead=48 / rc=abr / mbtree=1 / bitrate=8000 / ratetol=1.0 / qcomp=0.60 / qpmin=0 / qpmax=69 / qpstep=4 / vbv_maxrate=8800 / vbv_bufsize=16000 / nal_hrd=none / filler=0 / ip_ratio=1.40 / aq=1:1.00
    Language                    : English
    Default                     : Yes
    Forced                      : Yes
    Color range                 : Limited
    Color primaries             : BT.709
    Transfer characteristics    : BT.709
    Matrix coefficients         : BT.709

    Audio #1
    ID                          : 2
    Format                      : AC-3
    Format/Info                 : Audio Coding 3
    Commercial name             : Dolby Digital
    Codec ID                    : A_AC3
    Duration                    : 2 h 13 min
    Bit rate mode               : Constant
    Bit rate                    : 384 kb/s
    Channel(s)                  : 6 channels
    Channel layout              : L R C LFE Ls Rs
    Sampling rate               : 48.0 kHz
    Frame rate                  : 31.250 FPS (1536 SPF)
    Compression mode            : Lossy
    Stream size                 : 366 MiB (4%)
    Title                       : Español Latino [CinemaniaHDD]
    Language                    : Spanish
    Service kind                : Complete Main
    Default                     : Yes
    Forced                      : Yes

    Audio #2
    ID                          : 3
    Format                      : E-AC-3
    Format/Info                 : Enhanced AC-3
    Commercial name             : Dolby Digital Plus
    Codec ID                    : A_EAC3
    Duration                    : 2 h 13 min
    Bit rate mode               : Constant
    Bit rate                    : 640 kb/s
    Channel(s)                  : 6 channels
    Channel layout              : L R C LFE Ls Rs
    Sampling rate               : 48.0 kHz
    Frame rate                  : 31.250 FPS (1536 SPF)
    Compression mode            : Lossy
    Delay relative to video     : 12 ms
    Stream size                 : 611 MiB (7%)
    Title                       : Ingles [CinemaniaHDD]
    Language                    : English
    Service kind                : Complete Main
    Default                     : No
    Forced                      : No

    Text #1
    ID                          : 4
    Format                      : UTF-8
    Codec ID                    : S_TEXT/UTF8
    Codec ID/Info               : UTF-8 Plain Text
    Duration                    : 20 s 812 ms
    Bit rate                    : 19 b/s
    Count of elements           : 6
    Stream size                 : 51.0 Bytes (0%)
    Title                       : Forzados-SRT [CinemaniaHDD]
    Language                    : Spanish
    Default                     : Yes
    Forced                      : Yes

    Text #2
    ID                          : 5
    Format                      : UTF-8
    Codec ID                    : S_TEXT/UTF8
    Codec ID/Info               : UTF-8 Plain Text
    Duration                    : 2 h 12 min
    Bit rate                    : 61 b/s
    Count of elements           : 1638
    Stream size                 : 59.1 KiB (0%)
    Title                       : Español-SRT [CinemaniaHDD]
    Language                    : Spanish
    Default                     : No
    Forced                      : No

    Text #3
    ID                          : 6
    Format                      : UTF-8
    Codec ID                    : S_TEXT/UTF8
    Codec ID/Info               : UTF-8 Plain Text
    Duration                    : 2 h 10 min
    Bit rate                    : 68 b/s
    Count of elements           : 2245
    Stream size                 : 65.9 KiB (0%)
    Title                       : Ingles-SRT [CinemaniaHDD]
    Language                    : English
    Default                     : No
    Forced                      : No

  • Peso: 8.40 GiB

Sinopsis

Descargar Los que se quedan (2023) MA WEB-DL 1080p Latino. A nadie le gusta el profesor Paul Hunham (Giamatti), ni a sus alumnos, ni a sus compañeros, ni al director de la escuela secundaria donde trabaja, a todos les resulta exasperante su pomposidad y rigidez. Sin familia y sin ningún lugar a donde ir durante las vacaciones de Navidad de 1970, Paul se queda en la escuela para supervisar a los estudiantes que no han podido viajar a casa. Después de unos días, solo queda allí un estudiante: un problemático chico de 15 años llamado Angus, un buen estudiante cuyo mal comportamiento siempre amenaza con expulsarlo. Junto a Paul y Angus está la cocinera Mary (Randolph), una mujer afroamericana que atiende a hijos privilegiados y cuyo propio hijo perdió la vida recientemente en Vietnam. Estos tres náufragos tan diferentes formarán una improbable familia durante dos semanas muy nevadas en Nueva Inglaterra.

Ficha técnica

Video trailer de la película

Enlaces de descarga

Rip de Bluray

Descargar Los que se quedan (2023) MA WEB-DL 1080p Latino




Aportes de DPeliculasHDmega la pass es:dpeliculashdmega.org Aportes de CinemaniaHD la pass es:cinemaniahdd.com Aportes recientes:cinemaniahdd.net
Guardado en : Comedia , Drama

Películas relacionadas

descargar Los que se quedan (2023) MA WEB-DL 1080p Latino WEBDL 1080p gratis, Los que se quedan (2023) MA WEB-DL 1080p Latino WEBDL mega 1 link, Los que se quedan (2023) MA WEB-DL 1080p Latino WEBDL pelicula completa, descargar Los que se quedan (2023) MA WEB-DL 1080p Latino WEBDL gratis en mega.

Los que se quedan (2023) MA WEB-DL 1080p Latino pelicula full hd, Los que se quedan (2023) MA WEB-DL 1080p Latino mega latino, Los que se quedan (2023) MA WEB-DL 1080p Latino 4k latino, Los que se quedan (2023) MA WEB-DL 1080p Latino pelicula completa, Los que se quedan (2023) MA WEB-DL 1080p Latino descargar gratis, descargar Los que se quedan (2023) MA WEB-DL 1080p Latino pelicula latino, Los que se quedan (2023) MA WEB-DL 1080p Latino 1 link mega, Los que se quedan (2023) MA WEB-DL 1080p Latino 1 link google drive, Los que se quedan (2023) MA WEB-DL 1080p Latino hd 1080p latino.
Comentarios 0