×

¿Problemas para descargar con Mozilla, EDGE? Deshabilita la opción "Abrir vinculos en una pestaña nueva" tal como lo muestra ésta imagen.

Los puentes de Madison (1995) HD 1080p Latino – CMHDD

414 vistas

Información de Los puentes de Madison (1995) HD 1080p Latino – CMHDD

Datos de la película

  • Calidad: 1080p
  • Audio: Español Latino AC3 2.0 BLURAY - Ingles AC3 5.1 BLURAY
  • Subtitulos: Español Latino SRT
  • Resolución: 1920x1080p
  • Formato: MKV
  • Codec: H.264
  • Encoder: Dracarys
  • Mediainfo: Clic para Mostrar Datos Ver
  • Format                      : Matroska
    Format version              : Version 4
    File size                   : 4.11 GiB
    Duration                    : 2 h 14 min
    Overall bit rate            : 4 368 kb/s
    Movie name                  : Los puentes de Madison (1995) HD 1080p Latino - CMHDD
    Encoded date                : UTC 2020-06-04 02:31:00
    Writing application         : mkvmerge v46.0.0 ('No Deeper Escape') 64-bit
    Writing library             : libebml v1.3.10 + libmatroska v1.5.2

    Video
    ID                          : 1
    Format                      : AVC
    Format/Info                 : Advanced Video Codec
    Format profile              : High@L4.1
    Format settings             : CABAC / 4 Ref Frames
    Format settings, CABAC      : Yes
    Format settings, Reference  : 4 frames
    Codec ID                    : V_MPEG4/ISO/AVC
    Duration                    : 2 h 14 min
    Bit rate                    : 3 500 kb/s
    Width                       : 1 920 pixels
    Height                      : 1 080 pixels
    Display aspect ratio        : 16:9
    Frame rate mode             : Constant
    Frame rate                  : 23.976 (24000/1001) FPS
    Color space                 : YUV
    Chroma subsampling          : 4:2:0
    Bit depth                   : 8 bits
    Scan type                   : Progressive
    Bits/(Pixel*Frame)          : 0.070
    Stream size                 : 3.31 GiB (81%)
    Writing library             : x264 core 157 r2935 545de2f
    Encoding settings           : cabac=1 / ref=4 / deblock=1:0:0 / analyse=0x3:0x113 / me=hex / subme=8 / psy=1 / psy_rd=1.00:0.00 / mixed_ref=1 / me_range=16 / chroma_me=1 / trellis=2 / 8x8dct=1 / cqm=0 / deadzone=21,11 / fast_pskip=1 / chroma_qp_offset=-2 / threads=24 / lookahead_threads=4 / sliced_threads=0 / nr=0 / decimate=1 / interlaced=0 / bluray_compat=0 / constrained_intra=0 / bframes=3 / b_pyramid=2 / b_adapt=1 / b_bias=0 / direct=3 / weightb=1 / open_gop=0 / weightp=2 / keyint=240 / keyint_min=24 / scenecut=40 / intra_refresh=0 / rc_lookahead=50 / rc=abr / mbtree=1 / bitrate=3500 / ratetol=1.0 / qcomp=0.60 / qpmin=0 / qpmax=69 / qpstep=4 / vbv_maxrate=62500 / vbv_bufsize=78125 / nal_hrd=none / filler=0 / ip_ratio=1.40 / aq=1:1.00
    Default                     : Yes
    Forced                      : No
    Color range                 : Limited
    Color primaries             : BT.709
    Transfer characteristics    : BT.709
    Matrix coefficients         : BT.709

    Audio #1
    ID                          : 2
    Format                      : AC-3
    Format/Info                 : Audio Coding 3
    Commercial name             : Dolby Digital
    Codec ID                    : A_AC3
    Duration                    : 2 h 14 min
    Bit rate mode               : Constant
    Bit rate                    : 192 kb/s
    Channel(s)                  : 2 channels
    Channel layout              : L R
    Sampling rate               : 48.0 kHz
    Frame rate                  : 31.250 FPS (1536 SPF)
    Compression mode            : Lossy
    Stream size                 : 185 MiB (4%)
    Language                    : Spanish
    Service kind                : Complete Main
    Default                     : Yes
    Forced                      : No

    Audio #2
    ID                          : 3
    Format                      : AC-3
    Format/Info                 : Audio Coding 3
    Commercial name             : Dolby Digital
    Codec ID                    : A_AC3
    Duration                    : 2 h 14 min
    Bit rate mode               : Constant
    Bit rate                    : 640 kb/s
    Channel(s)                  : 6 channels
    Channel layout              : L R C LFE Ls Rs
    Sampling rate               : 48.0 kHz
    Frame rate                  : 31.250 FPS (1536 SPF)
    Compression mode            : Lossy
    Stream size                 : 616 MiB (15%)
    Language                    : English
    Service kind                : Complete Main
    Default                     : No
    Forced                      : No

    Text #1
    ID                          : 4
    Format                      : UTF-8
    Codec ID                    : S_TEXT/UTF8
    Codec ID/Info               : UTF-8 Plain Text
    Duration                    : 2 h 8 min
    Bit rate                    : 39 b/s
    Count of elements           : 1258
    Stream size                 : 37.1 KiB (0%)
    Title                       : SRT
    Language                    : Spanish
    Default                     : No
    Forced                      : No

    Text #2
    ID                          : 5
    Format                      : PGS
    Muxing mode                 : zlib
    Codec ID                    : S_HDMV/PGS
    Codec ID/Info               : Picture based subtitle format used on BDs/HD-DVDs
    Duration                    : 2 h 8 min
    Bit rate                    : 36.2 kb/s
    Count of elements           : 2516
    Stream size                 : 33.1 MiB (1%)
    Title                       : PGS
    Language                    : Spanish
    Default                     : No
    Forced                      : No

    Menu
    00:00:00.000                : :Chapter 1
    00:09:01.458                : :Chapter 2
    00:20:58.382                : :Chapter 3
    00:30:21.570                : :Chapter 4
    00:39:54.851                : :Chapter 5
    00:49:13.325                : :Chapter 6
    01:00:20.450                : :Chapter 7
    01:09:26.996                : :Chapter 8
    01:19:47.032                : :Chapter 9
    01:30:01.730                : :Chapter 10
    01:39:53.029                : :Chapter 11
    01:50:08.811                : :Chapter 12
    02:00:09.869                : :Chapter 13
    02:09:46.028                : :Chapter 14

  • Peso: 4.11 GiB

Sinopsis

La apacible pero anodina vida de Francesca Johnson, un ama de casa que vive en una granja con su familia, se ve alterada con la llegada de Robert Kincaid, un veterano fotógrafo de la revista National Geographic, que visita el condado de Madison para fotografiar sus viejos puentes. Cuando Francesca invita a Robert a cenar, un amor verdadero y una pasión desconocida nacerá entre ellos.

Ficha técnica

Video trailer de la película

Enlaces de descarga

Rip de Bluray

Descargar Los puentes de Madison (1995) HD 1080p Latino – CMHDD




Aportes de DPeliculasHDmega la pass es:dpeliculashdmega.org Aportes de CinemaniaHD la pass es:cinemaniahdd.com
Guardado en : Drama , HD 1080p , Romance

Películas relacionadas

descargar Los puentes de Madison (1995) HD 1080p Latino – CMHDD 1080p 1080p gratis, Los puentes de Madison (1995) HD 1080p Latino – CMHDD 1080p mega 1 link, Los puentes de Madison (1995) HD 1080p Latino – CMHDD 1080p pelicula completa, descargar Los puentes de Madison (1995) HD 1080p Latino – CMHDD 1080p gratis en mega.

Los puentes de Madison (1995) HD 1080p Latino – CMHDD pelicula full hd, Los puentes de Madison (1995) HD 1080p Latino – CMHDD mega latino, Los puentes de Madison (1995) HD 1080p Latino – CMHDD 4k latino, Los puentes de Madison (1995) HD 1080p Latino – CMHDD pelicula completa, Los puentes de Madison (1995) HD 1080p Latino – CMHDD descargar gratis, descargar Los puentes de Madison (1995) HD 1080p Latino – CMHDD pelicula latino, Los puentes de Madison (1995) HD 1080p Latino – CMHDD 1 link mega, Los puentes de Madison (1995) HD 1080p Latino – CMHDD 1 link google drive, Los puentes de Madison (1995) HD 1080p Latino – CMHDD hd 1080p latino.
Comentarios 0