Los Pitufos: La aldea escondida (2017) WEBDL 720p Latino

772 vistas
1 estrella2 estrellas3 estrellas4 estrellas5 estrellas (1 votos, promedio: 5,00 de 5)
Cargando…

Información de Los Pitufos: La aldea escondida (2017) WEBDL 720p Latino

Datos de la película

  • Calidad: WEBDL
  • Audio: Español Latino AC3 2.0 iTunes - Ingles AC3 5.1 iTunes
  • Subtitulos: Español Latino SRT - Ingles SRT
  • Resolución: 1280x686p
  • Formato: MKV
  • Codec: H.264
  • Encoder: Dpelis
  • Mediainfo: Clic para Mostrar Datos Ver
  • Smurfs The Lost Village 2017 720p WEBDL Latino.mkv
    Format                      : Matroska
    Format version              : Version 4 / Version 2
    File size                   : 1.64 GiB
    Duration                    : 1 h 29 min
    Overall bit rate            : 2 616 kb/s
    Encoded date                : UTC 2017-06-20 07:14:04
    Writing application         : mkvmerge v10.0.0 ('To Drown In You') 64bit
    Writing library             : libebml v1.3.4 + libmatroska v1.4.5

    Video
    ID                          : 1
    Format                      : AVC
    Format/Info                 : Advanced Video Codec
    Format profile              : High@L4.1
    Format settings, CABAC      : Yes
    Format settings, ReFrames   : 4 frames
    Codec ID                    : V_MPEG4/ISO/AVC
    Duration                    : 1 h 29 min
    Bit rate                    : 2 000 kb/s
    Width                       : 1 280 pixels
    Height                      : 686 pixels
    Display aspect ratio        : 1.85:1
    Frame rate mode             : Constant
    Frame rate                  : 23.976 (24000/1001) FPS
    Color space                 : YUV
    Chroma subsampling          : 4:2:0
    Bit depth                   : 8 bits
    Scan type                   : Progressive
    Bits/(Pixel*Frame)          : 0.095
    Stream size                 : 1.24 GiB (75%)
    Writing library             : x264 core 148 r2708 86b7198
    Encoding settings           : cabac=1 / ref=3 / deblock=1:0:0 / analyse=0x3:0x113 / me=hex / subme=7 / psy=1 / psy_rd=1.00:0.00 / mixed_ref=1 / me_range=16 / chroma_me=1 / trellis=1 / 8x8dct=1 / cqm=0 / deadzone=21,11 / fast_pskip=1 / chroma_qp_offset=-2 / threads=12 / lookahead_threads=2 / sliced_threads=0 / nr=0 / decimate=1 / interlaced=0 / bluray_compat=0 / constrained_intra=0 / bframes=3 / b_pyramid=2 / b_adapt=1 / b_bias=0 / direct=1 / weightb=1 / open_gop=0 / weightp=2 / keyint=240 / keyint_min=24 / scenecut=40 / intra_refresh=0 / rc_lookahead=40 / rc=abr / mbtree=1 / bitrate=2000 / ratetol=1.0 / qcomp=0.60 / qpmin=0 / qpmax=69 / qpstep=4 / vbv_maxrate=62500 / vbv_bufsize=78125 / nal_hrd=none / filler=0 / ip_ratio=1.40 / aq=1:1.00
    Default                     : Yes
    Forced                      : No
    Color range                 : Limited
    Color primaries             : BT.709
    Transfer characteristics    : BT.709
    Matrix coefficients         : BT.709

    Audio #1
    ID                          : 2
    Format                      : AC-3
    Format/Info                 : Audio Coding 3
    Format settings, Endianness : Big
    Codec ID                    : A_AC3
    Duration                    : 1 h 29 min
    Bit rate mode               : Constant
    Bit rate                    : 384 kb/s
    Channel(s)                  : 6 channels
    Channel positions           : Front: L C R, Side: L R, LFE
    Sampling rate               : 48.0 kHz
    Frame rate                  : 31.250 FPS (1536 spf)
    Bit depth                   : 16 bits
    Compression mode            : Lossy
    Stream size                 : 247 MiB (15%)
    Language                    : English
    Service kind                : Complete Main
    Default                     : No
    Forced                      : No

    Audio #2
    ID                          : 3
    Format                      : AC-3
    Format/Info                 : Audio Coding 3
    Format settings, Endianness : Big
    Codec ID                    : A_AC3
    Duration                    : 1 h 29 min
    Bit rate mode               : Constant
    Bit rate                    : 256 kb/s
    Channel(s)                  : 2 channels
    Channel positions           : Front: L R
    Sampling rate               : 48.0 kHz
    Frame rate                  : 31.250 FPS (1536 spf)
    Bit depth                   : 16 bits
    Compression mode            : Lossy
    Stream size                 : 164 MiB (10%)
    Language                    : Spanish
    Service kind                : Complete Main
    Default                     : Yes
    Forced                      : No

    Text #1
    ID                          : 4
    Format                      : UTF-8
    Codec ID                    : S_TEXT/UTF8
    Codec ID/Info               : UTF-8 Plain Text
    Duration                    : 1 h 28 min
    Bit rate                    : 58 b/s
    Count of elements           : 1079
    Stream size                 : 37.7 KiB (0%)
    Language                    : Spanish
    Default                     : No
    Forced                      : No

    Text #2
    ID                          : 5
    Format                      : UTF-8
    Codec ID                    : S_TEXT/UTF8
    Codec ID/Info               : UTF-8 Plain Text
    Duration                    : 1 h 28 min
    Bit rate                    : 0 b/s
    Count of elements           : 4
    Stream size                 : 197 Bytes (0%)
    Language                    : Spanish
    Default                     : Yes
    Forced                      : No

    Text #3
    ID                          : 6
    Format                      : UTF-8
    Codec ID                    : S_TEXT/UTF8
    Codec ID/Info               : UTF-8 Plain Text
    Duration                    : 1 h 25 min
    Bit rate                    : 54 b/s
    Count of elements           : 1094
    Stream size                 : 34.1 KiB (0%)
    Language                    : English
    Default                     : No
    Forced                      : No

    Menu
    00:00:00.000                : en:1
    00:08:49.446                : en:2
    00:11:04.414                : en:3
    00:14:34.749                : en:4
    00:21:22.072                : en:5
    00:27:26.145                : en:6
    00:30:34.583                : en:7
    00:36:50.083                : en:8
    00:42:42.351                : en:9
    00:45:59.674                : en:10
    00:50:36.951                : en:11
    00:57:04.588                : en:12
    01:02:36.294                : en:13
    01:09:08.770                : en:14
    01:14:40.476                : en:15
    01:19:35.479                : en:16

  • Peso: 1.64GB

Sinopsis

A Pitufina le parece que todos los demás habitantes de la aldea tienen un propósito: Papá Pitufo (dirigir), Pitufo Panadero (preparar pan y pasteles), incluso Pitufo Gruñón (gruñir); salvo ella. Así que, ¿qué puede hacer la única chica de la aldea? ¡Pues partir en busca del suyo, naturalmente! Cuando se cruza por casualidad con una misteriosa criatura que huye hacia el Bosque Encantado, la sigue y se interna por territorio inexplorado y totalmente prohibido. A ella se le unen sus hermanos Filósofo, Valiente y Torpe y con el malvado mago Gargamel siguiéndolos de cerca. El equipo pitufo emprenderá así un alocado viaje lleno de acción, peligro y descubrimientos, que los conducirá al mayor misterio de la historia Pitufa.

Ficha técnica

Video trailer de la película

Enlaces de descarga

Descargar Los Pitufos: La aldea escondida (2017) WEBDL 720p Latino
Aportes de DPeliculasHDmega la pass es:dpeliculashdmega.org Aportes de CinemaniaHD la pass es:cinemaniahdd.com
Guardado en : Animación , Aventura , Comedia , Familia

Películas relacionadas

  • Antboy 3 (2016) Web-DL 1080p Latino

    2016
    Antboy 3 (2016) Web-DL 1080p Latino

    5.0 1h 16m 2016

    Descargar Antboy 3 (2016) Web-DL 1080p Latino, Mega, Google Drive. Exofarm tiene un nuevo CEO. El nuevo...

    Director: Ask Hasselbalch

    Género: Acción

    Actores: Samuel Ting Graf

  • Escuela Nocturnas (2018) WEBDL 1080p Latino

    2018
    Escuela Nocturnas (2018) WEBDL 1080p Latino

    3.0 1h 51m 2018

    A Teddy Walker (Kevin Hart) le acaban de decir que tiene dislexia, además de otras discapacidades de...

    Director: Malcolm D. Lee

    Género: Comedia

    Actores: Yvonne Orji

  • El Depredador (2018) Full 1080p Latino ( PLACEBO)

    2018
    El Depredador (2018) Full 1080p Latino ( PLACEBO)

    5.0 1h 41m 2018

    El Depredador  Full HD Latino Torrent Cuando el pequeño Rory (Jacob Tremblay) activa accidentalmente...

    Director: Shane Black

    Género: Acción

    Actores: Yvonne Strahovski

  • Leprechaun Returns (2018) WEBDL 1080p Latino

    2019
    Leprechaun Returns (2018) WEBDL 1080p Latino

    0.0 1h 32m 2019

    Un grupo de hermanas de la hermandad involuntaria despiertan accidentalmente al Leprechaun asesino en...

    Director: Steven Kostanski

    Género: Comedia

    Actores: Taylor Spreitler

Comentarios 1
  • juan - 21 junio, 2017

    felicitaciones por la pagina!! esta muy buena!! me llevo esta peli de excelente calidad para ver con mis pequeños!!
    saludos.-