Los Picapiedra (1994) Full 1080p Latino

1.063 vistas
1 estrella2 estrellas3 estrellas4 estrellas5 estrellas (1 votos, promedio: 5,00 de 5)
Cargando…

Información de Los Picapiedra (1994) Full 1080p Latino

Datos de la película

  • Calidad: Full 1080p
  • Audio: Español Latino AC3 2.0 DVD - Ingles DTS 5.1 BLURAY
  • Subtitulos: Español Latino PGS - Ingles PGS
  • Resolución: 1920x1080p
  • Formato: MKV
  • Codec: H.264
  • Encoder: Dracarys
  • Mediainfo: Clic para Mostrar Datos Ver
  • Format                      : Matroska
    Format version              : Version 4
    File size                   : 5.54 GiB
    Duration                    : 1 h 30 min
    Overall bit rate            : 8 756 kb/s
    Movie name                  : CinemaniaHDD.net
    Encoded date                : UTC 2019-02-09 20:50:01
    Writing application         : mkvmerge v30.1.0 ('Forever And More') 64-bit
    Writing library             : libebml v1.3.6 + libmatroska v1.4.9 / Lavf58.20.100

    Video
    ID                          : 1
    Format                      : AVC
    Format/Info                 : Advanced Video Codec
    Format profile              : [email protected]
    Format settings             : CABAC / 4 Ref Frames
    Format settings, CABAC      : Yes
    Format settings, ReFrames   : 4 frames
    Codec ID                    : V_MPEG4/ISO/AVC
    Duration                    : 1 h 30 min
    Bit rate                    : 7 027 kb/s
    Width                       : 1 920 pixels
    Height                      : 1 080 pixels
    Display aspect ratio        : 16:9
    Frame rate mode             : Constant
    Frame rate                  : 23.976 (24000/1001) FPS
    Color space                 : YUV
    Chroma subsampling          : 4:2:0
    Bit depth                   : 8 bits
    Scan type                   : Progressive
    Bits/(Pixel*Frame)          : 0.141
    Stream size                 : 4.45 GiB (80%)
    Writing library             : x264 core 157 r2935 545de2f
    Encoding settings           : cabac=1 / ref=4 / deblock=1:0:0 / analyse=0x1:0x131 / me=tesa / subme=11 / psy=1 / psy_rd=1.00:0.00 / mixed_ref=1 / me_range=24 / chroma_me=1 / trellis=2 / 8x8dct=0 / cqm=0 / deadzone=21,11 / fast_pskip=0 / chroma_qp_offset=-2 / threads=34 / lookahead_threads=8 / sliced_threads=0 / nr=0 / decimate=1 / interlaced=0 / bluray_compat=0 / constrained_intra=0 / bframes=16 / b_pyramid=2 / b_adapt=2 / b_bias=0 / direct=3 / weightb=1 / open_gop=0 / weightp=2 / keyint=240 / keyint_min=24 / scenecut=40 / intra_refresh=0 / rc_lookahead=60 / rc=crf / mbtree=1 / crf=20.0 / qcomp=0.60 / qpmin=0 / qpmax=69 / qpstep=4 / vbv_maxrate=20000 / vbv_bufsize=25000 / crf_max=0.0 / nal_hrd=none / filler=0 / ip_ratio=1.40 / aq=1:1.00
    Language                    : English
    Default                     : Yes
    Forced                      : No
    Color range                 : Limited
    Color primaries             : BT.709
    Transfer characteristics    : BT.709
    Matrix coefficients         : BT.709

    Audio #1
    ID                          : 2
    Format                      : AC-3
    Format/Info                 : Audio Coding 3
    Commercial name             : Dolby Digital
    Codec ID                    : A_AC3
    Duration                    : 1 h 30 min
    Bit rate mode               : Constant
    Bit rate                    : 192 kb/s
    Channel(s)                  : 2 channels
    Channel layout              : L R
    Sampling rate               : 48.0 kHz
    Frame rate                  : 31.250 FPS (1536 SPF)
    Bit depth                   : 16 bits
    Compression mode            : Lossy
    Delay relative to video     : 2 s 400 ms
    Stream size                 : 124 MiB (2%)
    Language                    : Spanish
    Service kind                : Complete Main
    Default                     : Yes
    Forced                      : No

    Audio #2
    ID                          : 3
    Format                      : DTS
    Format/Info                 : Digital Theater Systems
    Codec ID                    : A_DTS
    Duration                    : 1 h 30 min
    Bit rate mode               : Constant
    Bit rate                    : 1 509 kb/s
    Channel(s)                  : 6 channels
    Channel layout              : C L R Ls Rs LFE
    Sampling rate               : 48.0 kHz
    Frame rate                  : 93.750 FPS (512 SPF)
    Bit depth                   : 24 bits
    Compression mode            : Lossy
    Stream size                 : 978 MiB (17%)
    Language                    : English
    Default                     : No
    Forced                      : No

    Text #1
    ID                          : 4
    Format                      : PGS
    Muxing mode                 : zlib
    Codec ID                    : S_HDMV/PGS
    Codec ID/Info               : Picture based subtitle format used on BDs/HD-DVDs
    Duration                    : 1 h 29 min
    Bit rate                    : 48.8 kb/s
    Count of elements           : 2828
    Stream size                 : 31.4 MiB (1%)
    Language                    : English
    Default                     : No
    Forced                      : No

    Text #2
    ID                          : 5
    Format                      : PGS
    Muxing mode                 : zlib
    Codec ID                    : S_HDMV/PGS
    Codec ID/Info               : Picture based subtitle format used on BDs/HD-DVDs
    Duration                    : 1 h 29 min
    Bit rate                    : 37.8 kb/s
    Count of elements           : 2157
    Stream size                 : 24.2 MiB (0%)
    Language                    : Spanish
    Default                     : No
    Forced                      : No

    Menu
    00:00:00.000                : :Chapter 1
    00:04:08.915                : :Chapter 2
    00:09:28.610                : :Chapter 3
    00:14:49.180                : :Chapter 4
    00:19:21.494                : :Chapter 5
    00:25:29.069                : :Chapter 6
    00:29:19.508                : :Chapter 7
    00:34:29.317                : :Chapter 8
    00:40:39.062                : :Chapter 9
    00:45:55.002                : :Chapter 10
    00:48:50.678                : :Chapter 11
    00:55:29.243                : :Chapter 12
    01:00:39.803                : :Chapter 13
    01:05:56.744                : :Chapter 14
    01:11:37.001                : :Chapter 15
    01:15:40.411                : :Chapter 16
    01:19:55.124                : :Chapter 17
    01:23:17.034                : :Chapter 18

  • Peso: 5.54 GiB

Sinopsis

Pedro Picapiedra es nombrado vicepresidente de la compañía en la que trabaja. Pero un consejero y su secretaria intentan engañarlo para que firme una serie de autorizaciones de pagos y poder quedarse con el dinero. Halagada su vanidad, Pedro llegará a romper su amistad con sus amigos los Mármol.

Ficha técnica

Video trailer de la película

Enlaces de descarga

Rip de Bluray

Descargar Los Picapiedra (1994) Full 1080p Latino




Aportes de DPeliculasHDmega la pass es:dpeliculashdmega.org Aportes de CinemaniaHD la pass es:cinemaniahdd.com

Películas relacionadas

  • The Final Wish (2018) Full 1080p Subtitulado

    2019
    The Final Wish (2018) Full 1080p Subtitulado

    0.0 1h 35m 2019

    Descargar The Final Wish (2018) Full 1080p Subtitulado. Aaron (Michael Welch) es un abogado con problemas...

    Director: Timothy Woodward Jr.

    Género: FULL 1080p Plateadas

    Actores: Tony Todd

  • La nave del terror (1997) Full 1080p Latino

    1997
    La nave del terror (1997) Full 1080p Latino

    0.0 1h 36m 1997

    En el año 2047 una nave de rescate, la "Lewis & Clark", es enviada a investigar la misteriosa reaparición...

    Director: Paul W.S. Anderson

    Género: Ciencia ficción

    Actores: Teresa May

  • Man On A Ledge (2012) Full (Open Matte) 1080P Latino

    2012
    Man On A Ledge (2012) Full (Open Matte) 1080P Latino

    0.0 1h 42m 2012

    Nick Cassidy (Sam Worthington), un antiguo agente de policía, se escapa de la cárcel y se dirige al...

    Director: Melissa Kalbfus

    Género: Acción

    Actores: William Sadler

Comentarios 0