×

¿Problemas para descargar con Mozilla, EDGE? Deshabilita la opción "Abrir vinculos en una pestaña nueva" tal como lo muestra ésta imagen.

Los Picapiedra (1960-1966) [Serie Completa] REMUX 1080p Latino – CMHDD

582 vistas

Información de Los Picapiedra (1960-1966) [Serie Completa] REMUX 1080p Latino – CMHDD

Datos de la película

  • Calidad: Full 1080p
  • Audio: Español Latino AC3 2.0 BLURAY
  • Subtitulos: No
  • Resolución: 1920x1080p
  • Formato: MKV
  • Codec: H.264
  • Encoder: Dracarys
  • Mediainfo: Clic para Mostrar Datos Ver
  • Format                      : Matroska
    Format version              : Version 4
    File size                   : 2.24 GiB
    Duration                    : 26 min 25 s
    Overall bit rate mode       : Variable
    Overall bit rate            : 12.1 Mb/s
    Movie name                  : Los Picapiedra (1960-61) [S01E01] REMUX 1080p Latino - CMHDD
    Encoded date                : UTC 2020-11-09 18:27:20
    Writing application         : mkvmerge v51.0.0 ('I Wish') 64-bit
    Writing library             : libebml v1.4.0 + libmatroska v1.6.2

    Video
    ID                          : 1
    ID in the original source m : 4113 (0x1011)
    Format                      : AVC
    Format/Info                 : Advanced Video Codec
    Format profile              : High@L4.1
    Format settings             : CABAC / 4 Ref Frames
    Format settings, CABAC      : Yes
    Format settings, Reference  : 4 frames
    Codec ID                    : V_MPEG4/ISO/AVC
    Duration                    : 26 min 25 s
    Bit rate mode               : Variable
    Bit rate                    : 11.9 Mb/s
    Maximum bit rate            : 38.0 Mb/s
    Width                       : 1 920 pixels
    Height                      : 1 080 pixels
    Display aspect ratio        : 16:9
    Frame rate mode             : Constant
    Frame rate                  : 23.976 (24000/1001) FPS
    Color space                 : YUV
    Chroma subsampling          : 4:2:0
    Bit depth                   : 8 bits
    Scan type                   : Progressive
    Bits/(Pixel*Frame)          : 0.240
    Stream size                 : 2.20 GiB (98%)
    Language                    : English
    Default                     : No
    Forced                      : No
    Original source medium      : Blu-ray

    Audio
    ID                          : 2
    ID in the original source m : 4354 (0x1102)
    Format                      : AC-3
    Format/Info                 : Audio Coding 3
    Commercial name             : Dolby Digital
    Codec ID                    : A_AC3
    Duration                    : 26 min 25 s
    Bit rate mode               : Constant
    Bit rate                    : 192 kb/s
    Channel(s)                  : 2 channels
    Channel layout              : L R
    Sampling rate               : 48.0 kHz
    Frame rate                  : 31.250 FPS (1536 SPF)
    Compression mode            : Lossy
    Stream size                 : 36.3 MiB (2%)
    Language                    : Spanish
    Service kind                : Complete Main
    Default                     : Yes
    Forced                      : No
    Original source medium      : Blu-ray

    Menu
    00:00:00.000                : en:Chapter 01
    00:01:21.039                : en:Chapter 02
    00:03:48.728                : en:Chapter 03
    00:09:25.523                : en:Chapter 04
    00:14:44.717                : en:Chapter 05
    00:18:54.758                : en:Chapter 06
    00:25:24.481                : en:Chapter 07

  • Peso: 359 GiB Total

Sinopsis

Fue emitida por primera vez en la cadena estadounidense ABC el 30 de septiembre de 1960. Consta de 166 episodios. La acción tiene lugar en la Edad de Piedra,en un pueblo llamado Piedradura («Bedrock»), pero presenta una sociedad idéntica a la americana de mediados del siglo pasado. En un mundo fantástico los dinosaurios, los tigres dientes de sable, los mamuts y otros animales hoy extintos coexistían con los hombres. La tecnología es similar a la del siglo XX, pero son animales los que sustituyen a los aparatos eléctricos. Los personajes conducen automóviles formados por troncos de madera (troncomóviles), ruedas de piedra, en los que el motor era sustituido por el empuje de los pies de sus ocupantes. Las vestimentas eran de piel animal.

Ficha técnica

Video trailer de la película

Enlaces de descarga

Rip de Bluray

Descargar Los Picapiedra (1960-1966) [Serie Completa] REMUX 1080p Latino – CMHDD


Aportes de DPeliculasHDmega la pass es:dpeliculashdmega.org Aportes de CinemaniaHD la pass es:cinemaniahdd.com
Guardado en : Animación , Comedia , Familia , Kids

Películas relacionadas

descargar Los Picapiedra (1960-1966) [Serie Completa] REMUX 1080p Latino – CMHDD Full 1080p 1080p gratis, Los Picapiedra (1960-1966) [Serie Completa] REMUX 1080p Latino – CMHDD Full 1080p mega 1 link, Los Picapiedra (1960-1966) [Serie Completa] REMUX 1080p Latino – CMHDD Full 1080p pelicula completa, descargar Los Picapiedra (1960-1966) [Serie Completa] REMUX 1080p Latino – CMHDD Full 1080p gratis en mega.

Los Picapiedra (1960-1966) [Serie Completa] REMUX 1080p Latino – CMHDD pelicula full hd, Los Picapiedra (1960-1966) [Serie Completa] REMUX 1080p Latino – CMHDD mega latino, Los Picapiedra (1960-1966) [Serie Completa] REMUX 1080p Latino – CMHDD 4k latino, Los Picapiedra (1960-1966) [Serie Completa] REMUX 1080p Latino – CMHDD pelicula completa, Los Picapiedra (1960-1966) [Serie Completa] REMUX 1080p Latino – CMHDD descargar gratis, descargar Los Picapiedra (1960-1966) [Serie Completa] REMUX 1080p Latino – CMHDD pelicula latino, Los Picapiedra (1960-1966) [Serie Completa] REMUX 1080p Latino – CMHDD 1 link mega, Los Picapiedra (1960-1966) [Serie Completa] REMUX 1080p Latino – CMHDD 1 link google drive, Los Picapiedra (1960-1966) [Serie Completa] REMUX 1080p Latino – CMHDD hd 1080p latino.
Comentarios 6
  • jose - 06 febrero, 2021

    no paste pubico

    • Dracarys - 06 febrero, 2021

      Solo VIP

  • felipe - 13 diciembre, 2020

    esta nueva modalidad de descarga ha dañado la pagina.

    • Dracarys - 13 diciembre, 2020

      Ya está arreglado

  • Byron Flores - 13 diciembre, 2020

    No sale el enlace para descarga publica.

    • Dracarys - 13 diciembre, 2020

      Ya está arreglado