×

¿Problemas para descargar con Mozilla, EDGE? Deshabilita la opción "Abrir vinculos en una pestaña nueva" tal como lo muestra ésta imagen.

Los ojos de Tammy Faye (2021) REMUX 1080p Latino

291 vistas

Información de Los ojos de Tammy Faye (2021) REMUX 1080p Latino

Datos de la película

  • Calidad: Full 1080p
  • Audio: Español Latino AC3 5.1 WEB-DL - Ingles DTS 5.1 BLURAY
  • Subtitulos: Español Latino PGS - Ingles PGS
  • Resolución: 1920x1080p
  • Formato: MKV
  • Codec: H.264
  • Encoder: Melkor
  • Mediainfo: Clic para Mostrar Datos Ver
  • Los Ojos De Tammy Faye (2021) REMUX 1080p Latino.mkv
    Format                      : Matroska
    Format version              : Version 4
    File size                   : 35.4 GiB
    Duration                    : 2 h 6 min
    Overall bit rate mode       : Variable
    Overall bit rate            : 40.1 Mb/s
    Movie name                  : The Eyes of Tammy Faye (2021) CinemaniaHDD.Net
    Encoded date                : UTC 2022-03-23 08:09:04
    Writing application         : mkvmerge v56.1.0 ('My Friend') 64-bit
    Writing library             : libebml v1.4.2 + libmatroska v1.6.4
    Attachments                 : CINEMANIAHD.png

    Video
    ID                          : 1
    Format                      : AVC
    Format/Info                 : Advanced Video Codec
    Format profile              : High@L4.1
    Format settings             : CABAC / 4 Ref Frames
    Format settings, CABAC      : Yes
    Format settings, Reference  : 4 frames
    Codec ID                    : V_MPEG4/ISO/AVC
    Duration                    : 2 h 6 min
    Bit rate mode               : Variable
    Bit rate                    : 36.2 Mb/s
    Maximum bit rate            : 40.0 Mb/s
    Width                       : 1 920 pixels
    Height                      : 1 080 pixels
    Display aspect ratio        : 16:9
    Frame rate mode             : Constant
    Frame rate                  : 23.976 (24000/1001) FPS
    Color space                 : YUV
    Chroma subsampling          : 4:2:0
    Bit depth                   : 8 bits
    Scan type                   : Progressive
    Bits/(Pixel*Frame)          : 0.727
    Stream size                 : 32.0 GiB (90%)
    Title                       : REMUX HD1080p [CinemaniaHDD]
    Language                    : English
    Default                     : Yes
    Forced                      : Yes

    Audio #1
    ID                          : 2
    Format                      : AC-3
    Format/Info                 : Audio Coding 3
    Commercial name             : Dolby Digital
    Codec ID                    : A_AC3
    Duration                    : 2 h 6 min
    Bit rate mode               : Constant
    Bit rate                    : 448 kb/s
    Channel(s)                  : 6 channels
    Channel layout              : L R C LFE Ls Rs
    Sampling rate               : 48.0 kHz
    Frame rate                  : 31.250 FPS (1536 SPF)
    Compression mode            : Lossy
    Stream size                 : 405 MiB (1%)
    Title                       : Español Latino AC3 [CinemaniaHDD]
    Language                    : Spanish
    Service kind                : Complete Main
    Default                     : Yes
    Forced                      : Yes

    Audio #2
    ID                          : 3
    Format                      : DTS XLL
    Format/Info                 : Digital Theater Systems
    Commercial name             : DTS-HD Master Audio
    Codec ID                    : A_DTS
    Duration                    : 2 h 6 min
    Bit rate mode               : Variable
    Bit rate                    : 3 163 kb/s
    Channel(s)                  : 6 channels
    Channel layout              : C L R Ls Rs LFE
    Sampling rate               : 48.0 kHz
    Frame rate                  : 93.750 FPS (512 SPF)
    Bit depth                   : 24 bits
    Compression mode            : Lossless
    Stream size                 : 2.80 GiB (8%)
    Title                       : Ingles [CinemaniaHDD]
    Language                    : English
    Default                     : No
    Forced                      : No

    Audio #3
    ID                          : 4
    Format                      : E-AC-3
    Format/Info                 : Enhanced AC-3
    Commercial name             : Dolby Digital Plus
    Codec ID                    : A_EAC3
    Duration                    : 2 h 6 min
    Bit rate mode               : Constant
    Bit rate                    : 256 kb/s
    Channel(s)                  : 6 channels
    Channel layout              : L R C LFE Ls Rs
    Sampling rate               : 48.0 kHz
    Frame rate                  : 31.250 FPS (1536 SPF)
    Compression mode            : Lossy
    Delay relative to video     : 201 ms
    Stream size                 : 232 MiB (1%)
    Title                       : Español Latino EAC3 [CinemaniaHDD]
    Language                    : Spanish
    Service kind                : Complete Main
    Default                     : No
    Forced                      : No

    Text #1
    ID                          : 5
    Format                      : PGS
    Muxing mode                 : zlib
    Codec ID                    : S_HDMV/PGS
    Codec ID/Info               : Picture based subtitle format used on BDs/HD-DVDs
    Duration                    : 1 h 59 min
    Bit rate                    : 51.5 kb/s
    Count of elements           : 4158
    Stream size                 : 44.0 MiB (0%)
    Title                       : Español-PGS [CinemaniaHDD]
    Language                    : Spanish
    Default                     : No
    Forced                      : No

    Text #2
    ID                          : 6
    Format                      : PGS
    Muxing mode                 : zlib
    Codec ID                    : S_HDMV/PGS
    Codec ID/Info               : Picture based subtitle format used on BDs/HD-DVDs
    Duration                    : 1 h 59 min
    Bit rate                    : 63.9 kb/s
    Count of elements           : 4914
    Stream size                 : 54.9 MiB (0%)
    Title                       : Ingles-PGS [CinemaniaHDD]
    Language                    : English
    Default                     : No
    Forced                      : No

    Text #3
    ID                          : 7
    Format                      : UTF-8
    Codec ID                    : S_TEXT/UTF8
    Codec ID/Info               : UTF-8 Plain Text
    Duration                    : 1 h 59 min
    Bit rate                    : 1 b/s
    Count of elements           : 31
    Stream size                 : 1.32 KiB (0%)
    Title                       : Forzados-SRT [CinemaniaHDD]
    Language                    : Spanish
    Default                     : Yes
    Forced                      : Yes

    Text #4
    ID                          : 8
    Format                      : UTF-8
    Codec ID                    : S_TEXT/UTF8
    Codec ID/Info               : UTF-8 Plain Text
    Duration                    : 1 h 59 min
    Bit rate                    : 78 b/s
    Count of elements           : 2077
    Stream size                 : 68.6 KiB (0%)
    Title                       : Español-SRT [CinemaniaHDD]
    Language                    : Spanish
    Default                     : No
    Forced                      : No

    Menu
    00:00:00.000                : Chapter 01
    00:03:31.044                : Chapter 02
    00:07:37.290                : Chapter 03
    00:14:47.303                : Chapter 04
    00:21:36.462                : Chapter 05
    00:22:46.949                : Chapter 06
    00:25:51.675                : Chapter 07
    00:32:18.854                : Chapter 08
    00:40:06.696                : Chapter 09
    00:45:47.662                : Chapter 10
    00:50:21.227                : Chapter 11
    00:58:48.859                : Chapter 12
    01:04:50.011                : Chapter 13
    01:11:28.576                : Chapter 14
    01:16:55.611                : Chapter 15
    01:23:39.264                : Chapter 16
    01:33:23.056                : Chapter 17
    01:41:12.525                : Chapter 18
    01:43:02.176                : Chapter 19
    01:47:07.212                : Chapter 20
    01:50:47.975                : Chapter 21
    01:52:09.890                : Chapter 22
    01:59:36.044                : Chapter 23
    02:00:32.058                : Chapter 24

  • Peso: 35.4 GiB

Sinopsis

Descargar Los ojos de Tammy Faye (2021) REMUX 1080p Latino. Biopic sobre el fulgurante ascenso y posterior descenso a los infiernos de la pareja de telepredicadores, Tammy Faye y Jim Bakker, en la década de los 70 y 80. Desde sus humildes comienzos hasta la creación de todo un imperio en torno a «The PTL Club», el exitoso programa de televisión que estuvo en antena 15 años y les hizo famosos en todo el país.

Ficha técnica

Video trailer de la película

Enlaces de descarga

Rip de Bluray

Descargar Los ojos de Tammy Faye (2021) REMUX 1080p Latino


Aportes de DPeliculasHDmega la pass es:dpeliculashdmega.org Aportes de CinemaniaHD la pass es:cinemaniahdd.com
Guardado en : Drama , Historia , Música , Remux

Películas relacionadas

  • Hombre de familia (2000) REMUX 1080p Latino

    Hombre de familia (2000) REMUX 1080p Latino

    2000
    Hombre de familia (2000) REMUX 1080p Latino

    2h 1m 2000

    Descargar Hombre de familia (2000) REMUX 1080p Latino. Jack Campbell es un egocéntrico broker de Wall...

    Director: Robert Schroer

    Género: Comedia

    Actores: Wass Stevens

  • Anon (2018) REMUX 1080p Latino

    Anon (2018) REMUX 1080p Latino

    2018
    Anon (2018) REMUX 1080p Latino

    1h 40m 2018

    Descargar Anon (2018) REMUX 1080p Latino. Anon nos lleva hasta un futuro no muy lejano al estilo soviético,...

    Director: Sarah Campbell

    Género: Ciencia ficción

    Actores: Zion Lee

  • Te Amo Brother (2009) REMUX 1080p Latino

    Te Amo Brother (2009) REMUX 1080p Latino

    2009
    Te Amo Brother (2009) REMUX 1080p Latino

    1h 45m 2009

    Descargar Te Amo Brother (2009) REMUX 1080p Latino. Peter Klaven (Paul Rudd) es un joven que vive muy...

    Director: Scott Robertson

    Género: Comedia

    Actores: Vicki Davis

descargar Los ojos de Tammy Faye (2021) REMUX 1080p Latino Full 1080p 1080p gratis, Los ojos de Tammy Faye (2021) REMUX 1080p Latino Full 1080p mega 1 link, Los ojos de Tammy Faye (2021) REMUX 1080p Latino Full 1080p pelicula completa, descargar Los ojos de Tammy Faye (2021) REMUX 1080p Latino Full 1080p gratis en mega.

Los ojos de Tammy Faye (2021) REMUX 1080p Latino pelicula full hd, Los ojos de Tammy Faye (2021) REMUX 1080p Latino mega latino, Los ojos de Tammy Faye (2021) REMUX 1080p Latino 4k latino, Los ojos de Tammy Faye (2021) REMUX 1080p Latino pelicula completa, Los ojos de Tammy Faye (2021) REMUX 1080p Latino descargar gratis, descargar Los ojos de Tammy Faye (2021) REMUX 1080p Latino pelicula latino, Los ojos de Tammy Faye (2021) REMUX 1080p Latino 1 link mega, Los ojos de Tammy Faye (2021) REMUX 1080p Latino 1 link google drive, Los ojos de Tammy Faye (2021) REMUX 1080p Latino hd 1080p latino.
Comentarios 0