×

¿Problemas para descargar con Mozilla, EDGE? Deshabilita la opción "Abrir vinculos en una pestaña nueva" tal como lo muestra ésta imagen.

Los Nuevos Mutantes (2020) REMUX 1080p Latino

443 vistas

Información de Los Nuevos Mutantes (2020) REMUX 1080p Latino

Datos de la película

  • Calidad: Full 1080p
  • Audio: Español Latino AC3 5.1 BLURAY - Ingles DTS-HD Master 7.1 BLURAY
  • Subtitulos: Español Latino PGS - Ingles PGS
  • Resolución: 1920x1080p
  • Formato: MKV
  • Codec: H.264
  • Encoder: Melkor
  • Mediainfo: Clic para Mostrar Datos Ver
  • Los Nuevos Mutantes (2020) REMUX HD 1080p Latino.mkv
    Format                      : Matroska
    Format version              : Version 4
    File size                   : 23.3 GiB
    Duration                    : 1 h 34 min
    Overall bit rate mode       : Variable
    Overall bit rate            : 35.5 Mb/s
    Movie name                  : The New Mutants (2020) CinemaniaHDD.Net
    Encoded date                : UTC 2020-11-08 22:26:50
    Writing application         : mkvmerge v51.0.0 ('I Wish') 64-bit
    Writing library             : libebml v1.4.0 + libmatroska v1.6.2
    Attachments                 : CINEMANIAHD.png

    Video
    ID                          : 1
    Format                      : AVC
    Format/Info                 : Advanced Video Codec
    Format profile              : High@L4.1
    Format settings             : CABAC / 4 Ref Frames
    Format settings, CABAC      : Yes
    Format settings, Reference  : 4 frames
    Codec ID                    : V_MPEG4/ISO/AVC
    Duration                    : 1 h 34 min
    Bit rate mode               : Variable
    Bit rate                    : 30.3 Mb/s
    Maximum bit rate            : 33.0 Mb/s
    Width                       : 1 920 pixels
    Height                      : 1 080 pixels
    Display aspect ratio        : 16:9
    Frame rate mode             : Constant
    Frame rate                  : 23.976 (24000/1001) FPS
    Color space                 : YUV
    Chroma subsampling          : 4:2:0
    Bit depth                   : 8 bits
    Scan type                   : Progressive
    Bits/(Pixel*Frame)          : 0.609
    Stream size                 : 19.9 GiB (85%)
    Title                       : REMUX HD1080p [CinemaniaHDD]
    Default                     : Yes
    Forced                      : No

    Audio #1
    ID                          : 2
    Format                      : AC-3
    Format/Info                 : Audio Coding 3
    Commercial name             : Dolby Digital
    Codec ID                    : A_AC3
    Duration                    : 1 h 34 min
    Bit rate mode               : Constant
    Bit rate                    : 640 kb/s
    Channel(s)                  : 6 channels
    Channel layout              : L R C LFE Ls Rs
    Sampling rate               : 48.0 kHz
    Frame rate                  : 31.250 FPS (1536 SPF)
    Compression mode            : Lossy
    Stream size                 : 431 MiB (2%)
    Title                       : Español Latino [CinemaniaHDD]
    Language                    : Spanish
    Service kind                : Complete Main
    Default                     : Yes
    Forced                      : No

    Audio #2
    ID                          : 3
    Format                      : DTS XLL
    Format/Info                 : Digital Theater Systems
    Commercial name             : DTS-HD Master Audio
    Codec ID                    : A_DTS
    Duration                    : 1 h 34 min
    Bit rate mode               : Variable
    Bit rate                    : 4 543 kb/s
    Channel(s)                  : 8 channels
    Channel layout              : C L R LFE Lb Rb Lss Rss
    Sampling rate               : 48.0 kHz
    Frame rate                  : 93.750 FPS (512 SPF)
    Bit depth                   : 24 bits
    Compression mode            : Lossless
    Stream size                 : 2.98 GiB (13%)
    Title                       : Ingles [CinemaniaHDD]
    Language                    : English
    Default                     : No
    Forced                      : No

    Text #1
    ID                          : 4
    Format                      : PGS
    Muxing mode                 : zlib
    Codec ID                    : S_HDMV/PGS
    Codec ID/Info               : Picture based subtitle format used on BDs/HD-DVDs
    Duration                    : 1 h 12 min
    Bit rate                    : 857 b/s
    Count of elements           : 38
    Stream size                 : 459 KiB (0%)
    Title                       : Forzados-PGS [CinemaniaHDD]
    Language                    : Spanish
    Default                     : Yes
    Forced                      : No

    Text #2
    ID                          : 5
    Format                      : PGS
    Muxing mode                 : zlib
    Codec ID                    : S_HDMV/PGS
    Codec ID/Info               : Picture based subtitle format used on BDs/HD-DVDs
    Duration                    : 1 h 26 min
    Bit rate                    : 26.5 kb/s
    Count of elements           : 1980
    Stream size                 : 16.3 MiB (0%)
    Title                       : Español-PGS [CinemaniaHDD]
    Language                    : Spanish
    Default                     : No
    Forced                      : No

    Text #3
    ID                          : 6
    Format                      : PGS
    Muxing mode                 : zlib
    Codec ID                    : S_HDMV/PGS
    Codec ID/Info               : Picture based subtitle format used on BDs/HD-DVDs
    Duration                    : 1 h 26 min
    Bit rate                    : 34.8 kb/s
    Count of elements           : 2686
    Stream size                 : 21.4 MiB (0%)
    Title                       : Ingles-PGS [CinemaniaHDD]
    Language                    : English
    Default                     : No
    Forced                      : No

    Text #4
    ID                          : 7
    Format                      : UTF-8
    Codec ID                    : S_TEXT/UTF8
    Codec ID/Info               : UTF-8 Plain Text
    Duration                    : 1 h 25 min
    Bit rate                    : 1 b/s
    Count of elements           : 27
    Stream size                 : 873 Bytes (0%)
    Title                       : Forzados-SRT [CinemaniaHDD]
    Language                    : Spanish
    Default                     : No
    Forced                      : No

    Text #5
    ID                          : 8
    Format                      : UTF-8
    Codec ID                    : S_TEXT/UTF8
    Codec ID/Info               : UTF-8 Plain Text
    Duration                    : 1 h 26 min
    Bit rate                    : 41 b/s
    Count of elements           : 989
    Stream size                 : 26.2 KiB (0%)
    Title                       : Español-SRT [CinemaniaHDD]
    Language                    : Spanish
    Default                     : No
    Forced                      : No

    Menu
    00:00:00.000                : en:Chapter 1
    00:02:39.951                : en:Chapter 2
    00:08:07.737                : en:Chapter 3
    00:10:53.862                : en:Chapter 4
    00:14:33.039                : en:Chapter 5
    00:17:23.918                : en:Chapter 6
    00:19:53.067                : en:Chapter 7
    00:23:41.879                : en:Chapter 8
    00:27:54.590                : en:Chapter 9
    00:30:30.078                : en:Chapter 10
    00:33:26.588                : en:Chapter 11
    00:39:36.791                : en:Chapter 12
    00:43:12.965                : en:Chapter 13
    00:47:53.287                : en:Chapter 14
    00:50:35.157                : en:Chapter 15
    00:52:12.254                : en:Chapter 16
    00:55:28.825                : en:Chapter 17
    00:57:13.055                : en:Chapter 18
    01:00:17.113                : en:Chapter 19
    01:02:37.754                : en:Chapter 20
    01:06:36.367                : en:Chapter 21
    01:11:12.101                : en:Chapter 22
    01:13:44.462                : en:Chapter 23
    01:15:07.878                : en:Chapter 24
    01:18:57.107                : en:Chapter 25
    01:21:52.366                : en:Chapter 26
    01:24:32.276                : en:Chapter 27
    01:26:46.201                : en:Chapter 28

  • Peso: 23.3 GiB

Sinopsis

Descargar Los Nuevos Mutantes (2020) REMUX 1080p Latino. Los cinco jóvenes mutantes descubren sus habilidades mientras están recluidos en una instalación secreta contra su voluntad. Juntos, lucharán para escapar de sus pecados pasados y salvarse a sí mismos.

Ficha técnica

Video trailer de la película

Enlaces de descarga

Rip de Bluray

Descargar Los Nuevos Mutantes (2020) REMUX 1080p Latino




Aportes de DPeliculasHDmega la pass es:dpeliculashdmega.org Aportes de CinemaniaHD la pass es:cinemaniahdd.com

Películas relacionadas

descargar Los Nuevos Mutantes (2020) REMUX 1080p Latino Full 1080p 1080p gratis, Los Nuevos Mutantes (2020) REMUX 1080p Latino Full 1080p mega 1 link, Los Nuevos Mutantes (2020) REMUX 1080p Latino Full 1080p pelicula completa, descargar Los Nuevos Mutantes (2020) REMUX 1080p Latino Full 1080p gratis en mega.

Los Nuevos Mutantes (2020) REMUX 1080p Latino pelicula full hd, Los Nuevos Mutantes (2020) REMUX 1080p Latino mega latino, Los Nuevos Mutantes (2020) REMUX 1080p Latino 4k latino, Los Nuevos Mutantes (2020) REMUX 1080p Latino pelicula completa, Los Nuevos Mutantes (2020) REMUX 1080p Latino descargar gratis, descargar Los Nuevos Mutantes (2020) REMUX 1080p Latino pelicula latino, Los Nuevos Mutantes (2020) REMUX 1080p Latino 1 link mega, Los Nuevos Mutantes (2020) REMUX 1080p Latino 1 link google drive, Los Nuevos Mutantes (2020) REMUX 1080p Latino hd 1080p latino.
Comentarios 0