×

¿Problemas para descargar con Mozilla, EDGE? Deshabilita la opción "Abrir vinculos en una pestaña nueva" tal como lo muestra ésta imagen.

Los muertos no mueren (2019) REMUX 1080p Latino

470 vistas

Información de Los muertos no mueren (2019) REMUX 1080p Latino

los muertos no mueren 56600 poster

Datos de la película

  • Calidad: Full 1080p
  • Audio: Español Latino DTS 5.1 BLURAY - Ingles DTS 5.1 BLURAY
  • Subtitulos: Español Latino PGS - Ingles PGS
  • Resolución: 1920x1080p
  • Formato: MKV
  • Codec: H.264
  • Encoder: CinefiloCool
  • Mediainfo: Clic para Mostrar Datos Ver
  • Los muertos no mueren (2019) REMUX 1080p Latino-CMHDD.mkv
    Format                      : Matroska
    Format version              : Version 4
    File size                   : 29.3 GiB
    Duration                    : 1 h 44 min
    Overall bit rate mode       : Variable
    Overall bit rate            : 40.1 Mb/s
    Movie name                  : CinemaniaHDD.Net
    Encoded date                : UTC 2019-09-03 23:45:09
    Writing application         : mkvmerge v35.0.0 ('All The Love In The World') 64-bit
    Writing library             : libebml v1.3.9 + libmatroska v1.5.2
    Attachments                 : CINEMANIAHD.png

    Video
    ID                          : 1
    Format                      : AVC
    Format/Info                 : Advanced Video Codec
    Format profile              : High@L4.1
    Format settings             : CABAC / 4 Ref Frames
    Format settings, CABAC      : Yes
    Format settings, ReFrames   : 4 frames
    Format settings, GOP        : M=3, N=12
    Codec ID                    : V_MPEG4/ISO/AVC
    Duration                    : 1 h 44 min
    Bit rate mode               : Variable
    Bit rate                    : 35.8 Mb/s
    Maximum bit rate            : 39.4 Mb/s
    Width                       : 1 920 pixels
    Height                      : 1 080 pixels
    Display aspect ratio        : 16:9
    Frame rate mode             : Constant
    Frame rate                  : 23.976 (24000/1001) FPS
    Color space                 : YUV
    Chroma subsampling          : 4:2:0
    Bit depth                   : 8 bits
    Scan type                   : Progressive
    Bits/(Pixel*Frame)          : 0.720
    Stream size                 : 26.1 GiB (89%)
    Title                       : Full HD1080p [REMUX]
    Default                     : Yes
    Forced                      : Yes

    Audio #1
    ID                          : 2
    Format                      : DTS
    Format/Info                 : Digital Theater Systems
    Codec ID                    : A_DTS
    Duration                    : 1 h 44 min
    Bit rate mode               : Constant
    Bit rate                    : 768 kb/s
    Channel(s)                  : 6 channels
    Channel layout              : C L R Ls Rs LFE
    Sampling rate               : 48.0 kHz
    Frame rate                  : 93.750 FPS (512 SPF)
    Bit depth                   : 24 bits
    Compression mode            : Lossy
    Stream size                 : 574 MiB (2%)
    Title                       : DTS_5.1_Bluray_Esp
    Language                    : Spanish
    Default                     : Yes
    Forced                      : Yes

    Audio #2
    ID                          : 3
    Format                      : DTS XLL
    Format/Info                 : Digital Theater Systems
    Commercial name             : DTS-HD Master Audio
    Codec ID                    : A_DTS
    Duration                    : 1 h 44 min
    Bit rate mode               : Variable
    Bit rate                    : 3 518 kb/s
    Channel(s)                  : 6 channels
    Channel layout              : C L R Ls Rs LFE
    Sampling rate               : 48.0 kHz
    Frame rate                  : 93.750 FPS (512 SPF)
    Bit depth                   : 24 bits
    Compression mode            : Lossless
    Stream size                 : 2.57 GiB (9%)
    Title                       : DTS-HD_5.1_Bluray_Eng
    Language                    : English
    Default                     : No
    Forced                      : No

    Text #1
    ID                          : 4
    Format                      : PGS
    Muxing mode                 : zlib
    Codec ID                    : S_HDMV/PGS
    Codec ID/Info               : Picture based subtitle format used on BDs/HD-DVDs
    Duration                    : 1 h 43 min
    Bit rate                    : 283 b/s
    Count of elements           : 22
    Stream size                 : 215 KiB (0%)
    Title                       : Sub_Forzados [PGS]
    Language                    : Spanish
    Default                     : Yes
    Forced                      : Yes

    Text #2
    ID                          : 5
    Format                      : PGS
    Muxing mode                 : zlib
    Codec ID                    : S_HDMV/PGS
    Codec ID/Info               : Picture based subtitle format used on BDs/HD-DVDs
    Duration                    : 1 h 43 min
    Bit rate                    : 29.0 kb/s
    Count of elements           : 2016
    Stream size                 : 21.5 MiB (0%)
    Title                       : Sub_Esp [PGS]
    Language                    : Spanish
    Default                     : No
    Forced                      : No

    Text #3
    ID                          : 6
    Format                      : PGS
    Muxing mode                 : zlib
    Codec ID                    : S_HDMV/PGS
    Codec ID/Info               : Picture based subtitle format used on BDs/HD-DVDs
    Duration                    : 1 h 42 min
    Bit rate                    : 38.8 kb/s
    Count of elements           : 2729
    Stream size                 : 28.4 MiB (0%)
    Title                       : Sub_Eng [PGS]
    Language                    : English
    Default                     : No
    Forced                      : No

    Text #4
    ID                          : 7
    Format                      : UTF-8
    Codec ID                    : S_TEXT/UTF8
    Codec ID/Info               : UTF-8 Plain Text
    Duration                    : 1 h 43 min
    Bit rate                    : 0 b/s
    Count of elements           : 11
    Stream size                 : 245 Bytes (0%)
    Title                       : Sub_Forzados [PGS]
    Language                    : Spanish
    Default                     : No
    Forced                      : No

    Text #5
    ID                          : 8
    Format                      : UTF-8
    Codec ID                    : S_TEXT/UTF8
    Codec ID/Info               : UTF-8 Plain Text
    Duration                    : 1 h 38 min
    Bit rate                    : 42 b/s
    Count of elements           : 1003
    Stream size                 : 30.2 KiB (0%)
    Title                       : Sub_Esp
    Language                    : Spanish
    Default                     : No
    Forced                      : No

    Menu
    00:00:00.000                : en:Chapter 01
    00:05:01.384                : en:Chapter 02
    00:10:04.437                : en:Chapter 03
    00:17:04.148                : en:Chapter 04
    00:22:28.847                : en:Chapter 05
    00:28:04.724                : en:Chapter 06
    00:31:36.269                : en:Chapter 07
    00:37:56.649                : en:Chapter 08
    00:43:22.641                : en:Chapter 09
    00:50:53.050                : en:Chapter 10
    00:57:04.504                : en:Chapter 11
    01:01:16.964                : en:Chapter 12
    01:06:41.580                : en:Chapter 13
    01:09:20.823                : en:Chapter 14
    01:14:47.774                : en:Chapter 15
    01:18:47.681                : en:Chapter 16
    01:23:50.442                : en:Chapter 17
    01:28:10.201                : en:Chapter 18
    01:33:15.798                : en:Chapter 19
    01:39:11.487                : en:Chapter 20

  • Peso: 29.3 GiB

Sinopsis

Descargar Los muertos no mueren (2019) REMUX 1080p Latino. En la pacífica localidad de Centerville pasa algo raro. Los animales se empiezan a comportar de forma extraña, las horas de luz solar cambian de forma impredecible y la luna vigila permanentemente desde el horizonte. Los científicos están preocupados y los informativos dan noticias desconcertantes. Y es que, una extraña invasión está a punto de suceder en la que los muertos ya no está muertos y se levantarán de sus tumbas. Los habitantes de Centerville, liderados por Ronald Peterson y Cliff Robertson, deberán detener esta amenaza y luchar para sobrevivir.

Ficha técnica

  • Titulo original: The Dead Don't Die
  • Fecha de lanzamiento: 15-05-2019 (Sweden, United States of America)
  • Director: Jim Jarmusch
  • Género: Comedia, Remux, Terror

Video trailer de la película

Enlaces de descarga

Rip de Bluray

Descargar Los muertos no mueren (2019) REMUX 1080p Latino




Aportes de DPeliculasHDmega la pass es:dpeliculashdmega.org Aportes de CinemaniaHD la pass es:cinemaniahdd.com
Guardado en : Comedia , Remux , Terror

Películas relacionadas

  • Zola (2020) HD 1080p Latino

    Zola (2020) HD 1080p Latino

    2020
    Zola (2020) HD 1080p Latino

    1h 26m 2020

    Descargar Zola (2020) HD 1080p Latino. Una camarera accede a acompañar a una bailarina exótica, su...

    Director: Sheri Davani

    Género: Comedia

    Actores: Ts Madison

  • Zola (2020) PLACEBO Full HD 1080p Latino

    Zola (2020) PLACEBO Full HD 1080p Latino

    2020
    Zola (2020) PLACEBO Full HD 1080p Latino

    1h 26m 2020

    Descargar Zola (2020) PLACEBO Full HD 1080p Latino. Una camarera accede a acompañar a una bailarina...

    Director: Sheri Davani

    Género: Comedia

    Actores: Ts Madison

  • Zola (2020) REMUX 1080p Latino

    Zola (2020) REMUX 1080p Latino

    2020
    Zola (2020) REMUX 1080p Latino

    1h 26m 2020

    Descargar Zola (2020) REMUX 1080p Latino. Una camarera accede a acompañar a una bailarina exótica,...

    Director: Sheri Davani

    Género: Comedia

    Actores: Ts Madison

descargar Los muertos no mueren (2019) REMUX 1080p Latino Full 1080p 1080p gratis, Los muertos no mueren (2019) REMUX 1080p Latino Full 1080p mega 1 link, Los muertos no mueren (2019) REMUX 1080p Latino Full 1080p pelicula completa, descargar Los muertos no mueren (2019) REMUX 1080p Latino Full 1080p gratis en mega.

Los muertos no mueren (2019) REMUX 1080p Latino pelicula full hd, Los muertos no mueren (2019) REMUX 1080p Latino mega latino, Los muertos no mueren (2019) REMUX 1080p Latino 4k latino, Los muertos no mueren (2019) REMUX 1080p Latino pelicula completa, Los muertos no mueren (2019) REMUX 1080p Latino descargar gratis, descargar Los muertos no mueren (2019) REMUX 1080p Latino pelicula latino, Los muertos no mueren (2019) REMUX 1080p Latino 1 link mega, Los muertos no mueren (2019) REMUX 1080p Latino 1 link google drive, Los muertos no mueren (2019) REMUX 1080p Latino hd 1080p latino.
Comentarios 0