×

¿Problemas para descargar con Mozilla, EDGE? Deshabilita la opción "Abrir vinculos en una pestaña nueva" tal como lo muestra ésta imagen.

Los Miserables (2019) REMUX 1080p Latino

326 vistas

Información de Los Miserables (2019) REMUX 1080p Latino

Datos de la película

  • Calidad: Full 1080p
  • Audio: Se especifica abajo de la Sinopsis
  • Subtitulos: Español Latino SRT- FORZADOS SRT
  • Resolución: 1920x1080p
  • Formato: MKV
  • Codec: H.264
  • Encoder: CinefiloCool
  • Mediainfo: Clic para Mostrar Datos Ver
  • Los Miserables (2019) REMUX 1080p Latino-CMHDD.mkv
    Format                      : Matroska
    Format version              : Version 4
    File size                   : 29.5 GiB
    Duration                    : 1 h 44 min
    Overall bit rate mode       : Variable
    Overall bit rate            : 40.6 Mb/s
    Movie name                  : Les Misérables (2019) CinemaniaHDD.Net
    Encoded date                : UTC 2020-04-30 21:17:59
    Writing application         : mkvmerge v42.0.0 ('Overtime') 64-bit
    Writing library             : libebml v1.3.10 + libmatroska v1.5.2
    Attachments                 : CINEMANIAHD.png

    Video
    ID                          : 1
    Format                      : AVC
    Format/Info                 : Advanced Video Codec
    Format profile              : High@L4.1
    Format settings             : CABAC / 3 Ref Frames
    Format settings, CABAC      : Yes
    Format settings, ReFrames   : 3 frames
    Codec ID                    : V_MPEG4/ISO/AVC
    Duration                    : 1 h 44 min
    Bit rate mode               : Variable
    Bit rate                    : 37.0 Mb/s
    Maximum bit rate            : 39.0 Mb/s
    Width                       : 1 920 pixels
    Height                      : 1 080 pixels
    Display aspect ratio        : 16:9
    Frame rate mode             : Constant
    Frame rate                  : 23.976 (24000/1001) FPS
    Color space                 : YUV
    Chroma subsampling          : 4:2:0
    Bit depth                   : 8 bits
    Scan type                   : Progressive
    Bits/(Pixel*Frame)          : 0.744
    Stream size                 : 26.8 GiB (91%)
    Title                       : REMUX 1080p [CinemaniaHDD]
    Writing library             : x264 core 146 r2538 121396c
    Encoding settings           : cabac=1 / ref=4 / deblock=1:-1:-1 / analyse=0x3:0x133 / me=umh / subme=10 / psy=1 / psy_rd=1.00:0.15 / mixed_ref=1 / me_range=24 / chroma_me=1 / trellis=2 / 8x8dct=1 / cqm=0 / deadzone=21,11 / fast_pskip=1 / chroma_qp_offset=-3 / threads=48 / lookahead_threads=4 / sliced_threads=0 / slices=4 / nr=0 / decimate=1 / interlaced=0 / bluray_compat=1 / constrained_intra=0 / bframes=3 / b_pyramid=1 / b_adapt=2 / b_bias=0 / direct=3 / weightb=1 / open_gop=1 / weightp=1 / keyint=24 / keyint_min=1 / scenecut=40 / intra_refresh=0 / rc_lookahead=24 / rc=2pass / mbtree=1 / bitrate=37000 / ratetol=1.0 / qcomp=0.60 / qpmin=0 / qpmax=69 / qpstep=4 / cplxblur=20.0 / qblur=0.5 / vbv_maxrate=39000 / vbv_bufsize=30000 / nal_hrd=vbr / filler=0 / ip_ratio=1.40 / aq=1:1.00
    Default                     : Yes
    Forced                      : Yes
    Color range                 : Limited
    Color primaries             : BT.709
    Transfer characteristics    : BT.709
    Matrix coefficients         : BT.709

    Audio #1
    ID                          : 2
    Format                      : AC-3
    Format/Info                 : Audio Coding 3
    Commercial name             : Dolby Digital
    Codec ID                    : A_AC3
    Duration                    : 1 h 44 min
    Bit rate mode               : Constant
    Bit rate                    : 384 kb/s
    Channel(s)                  : 6 channels
    Channel layout              : L R C LFE Ls Rs
    Sampling rate               : 48.0 kHz
    Frame rate                  : 31.250 FPS (1536 SPF)
    Bit depth                   : 16 bits
    Compression mode            : Lossy
    Delay relative to video     : 24 ms
    Stream size                 : 286 MiB (1%)
    Title                       : Español latino [CinemaniaHDD]
    Language                    : Spanish
    Service kind                : Complete Main
    Default                     : Yes
    Forced                      : Yes

    Audio #2
    ID                          : 3
    Format                      : DTS XLL
    Format/Info                 : Digital Theater Systems
    Commercial name             : DTS-HD Master Audio
    Codec ID                    : A_DTS
    Duration                    : 1 h 44 min
    Bit rate mode               : Variable
    Bit rate                    : 3 370 kb/s
    Channel(s)                  : 6 channels
    Channel layout              : C L R Ls Rs LFE
    Sampling rate               : 48.0 kHz
    Frame rate                  : 93.750 FPS (512 SPF)
    Bit depth                   : 24 bits
    Compression mode            : Lossless
    Stream size                 : 2.45 GiB (8%)
    Title                       : Frances [CinemaniaHDD]
    Language                    : French
    Default                     : No
    Forced                      : No

    Text #1
    ID                          : 4
    Format                      : UTF-8
    Codec ID                    : S_TEXT/UTF8
    Codec ID/Info               : UTF-8 Plain Text
    Duration                    : 1 h 37 min
    Bit rate                    : 0 b/s
    Count of elements           : 16
    Stream size                 : 322 Bytes (0%)
    Title                       : Forzados-SRT [CinemaniaHDD]
    Language                    : Spanish
    Default                     : Yes
    Forced                      : Yes

    Text #2
    ID                          : 5
    Format                      : UTF-8
    Codec ID                    : S_TEXT/UTF8
    Codec ID/Info               : UTF-8 Plain Text
    Duration                    : 1 h 37 min
    Bit rate                    : 50 b/s
    Count of elements           : 1263
    Stream size                 : 36.0 KiB (0%)
    Title                       : Español-SRT [CinemaniaHDD]
    Language                    : Spanish
    Default                     : No
    Forced                      : No

    Text #3
    ID                          : 6
    Format                      : PGS
    Muxing mode                 : zlib
    Codec ID                    : S_HDMV/PGS
    Codec ID/Info               : Picture based subtitle format used on BDs/HD-DVDs
    Duration                    : 1 h 43 min
    Bit rate                    : 29.0 kb/s
    Count of elements           : 3359
    Stream size                 : 21.3 MiB (0%)
    Title                       : Frances-PGS [CinemaniaHDD]
    Language                    : French
    Default                     : No
    Forced                      : No

    Menu
    00:00:00.000                : :Studio Logo
    00:00:17.267                : :Opening Credits
    00:03:39.094                : :Title Sequence
    00:03:55.318                : :Ruiz Meets Chris
    00:07:37.290                : :Chandier Comes To Ruiz
    00:10:46.229                : :Riot Police
    00:13:08.121                : :Chris Gives A Town Tour
    00:17:17.870                : :Issa Talks To His Friends
    00:19:20.451                : :Chris Talks To Girls
    00:21:46.138                : :Buss Is At Roof Top
    00:23:31.410                : :Jojo Grill Under The Sun
    00:24:46.527                : :Chris Is In A Market
    00:28:15.611                : :Zorro Looks For Johnny
    00:30:20.068                : :Zorro Comes To Mayor
    00:31:26.593                : :Chris Enters Into Arbitration
    00:35:27.626                : :Chris Give A Mission To Ruiz
    00:36:39.155                : :Ruiz Meets Salah
    00:39:39.878                : :Ruiz Asks About Salah
    00:40:21.836                : :Issa And His Friends
    00:41:29.862                : :Harassment
    00:44:14.610                : :Looking For Issa
    00:47:39.190                : :Issa Runs
    00:51:02.601                : :Buzz Films
    00:53:19.905                : :The Kids Come To Mayor
    00:54:59.546                : :Chris Needs A Help
    00:57:23.231                : :Issa Is In The Car
    00:58:59.661                : :Ruiz Drives The Car
    00:59:52.422                : :The Cops Need Buzz
    01:02:23.448                : :Stingy Comes To Salah
    01:07:31.214                : :Ruiz Talks To Salah
    01:09:33.544                : :Ruiz Goes To Get Issa
    01:10:55.710                : :Chris Takes The Cub To Zorro
    01:13:25.943                : :Issa Stares Outside
    01:17:09.416                : :Going Home
    01:19:26.679                : :Gwada Cries
    01:21:49.988                : :Ruiz Meets Gwada
    01:26:20.509                : :Patrolling
    01:28:02.486                : :Issa Waits For The Car
    01:32:36.176                : :Retaliation
    01:34:20.446                : :Mayor Comes To The Building
    01:36:12.934                : :Stigny Is Mad
    01:40:06.167                : :End Credits

  • Peso: 29.5 GiB

Sinopsis

Descargar  Los Miserables (2019) REMUX 1080p Latino. Montfermeil, un suburbio al este de París. Stéphane (Damien Bonnard) acaba de unirse a la Brigada de Lucha contra la Delincuencia, donde conoce a sus nuevos compañeros, Chris (Alexis Manenti) y Gwada (Djibril Zonga), dos agentes con experiencia en las enormes tensiones que existen entre los distintos grupos organizados por el control del barrio.

Audio Español Latino AC3 5.1 WebDL – Frances DTS-HD 5.1 Bluray

Ficha técnica

Video trailer de la película

Enlaces de descarga

Rip de Bluray

Descargar Los Miserables (2019) REMUX 1080p Latino




Aportes de DPeliculasHDmega la pass es:dpeliculashdmega.org Aportes de CinemaniaHD la pass es:cinemaniahdd.com
Guardado en : Crimen , Drama , Remux

Películas relacionadas

descargar Los Miserables (2019) REMUX 1080p Latino Full 1080p 1080p gratis, Los Miserables (2019) REMUX 1080p Latino Full 1080p mega 1 link, Los Miserables (2019) REMUX 1080p Latino Full 1080p pelicula completa, descargar Los Miserables (2019) REMUX 1080p Latino Full 1080p gratis en mega.

Los Miserables (2019) REMUX 1080p Latino pelicula full hd, Los Miserables (2019) REMUX 1080p Latino mega latino, Los Miserables (2019) REMUX 1080p Latino 4k latino, Los Miserables (2019) REMUX 1080p Latino pelicula completa, Los Miserables (2019) REMUX 1080p Latino descargar gratis, descargar Los Miserables (2019) REMUX 1080p Latino pelicula latino, Los Miserables (2019) REMUX 1080p Latino 1 link mega, Los Miserables (2019) REMUX 1080p Latino 1 link google drive, Los Miserables (2019) REMUX 1080p Latino hd 1080p latino.
Comentarios 0