×

¿Problemas para descargar con Mozilla, EDGE? Deshabilita la opción "Abrir vinculos en una pestaña nueva" tal como lo muestra ésta imagen.

Los miserables (2019) 1080p Latino

303 vistas

Información de Los miserables (2019) 1080p Latino

Datos de la película

  • Calidad: 1080p
  • Audio: Español Latino 5.1 iTunes- Frances AC3 5.1 Bluray
  • Subtitulos: Español Latino SRT- FORZADOS SRT
  • Resolución: 1916x796
  • Formato: MKV
  • Codec: H.264
  • Encoder: CinemaniaHD
  • Mediainfo: Clic para Mostrar Datos Ver
  • Les Miserables (2019) 1080p Latino.mkv
    Format                      : Matroska
    Format version              : Version 4
    File size                   : 3.07 GiB
    Duration                    : 1 h 44 min
    Overall bit rate            : 4 220 kb/s
    Movie name                  : Les Miserables (2019) 1080p Latino
    Encoded date                : UTC 2020-04-30 19:57:04
    Writing application         : mkvmerge v42.0.0 ('Overtime') 64-bit
    Writing library             : libebml v1.3.10 + libmatroska v1.5.2 / Lavf58.20.100

    Video
    ID                          : 1
    Format                      : AVC
    Format/Info                 : Advanced Video Codec
    Format profile              : High@L4.1
    Format settings             : CABAC / 5 Ref Frames
    Format settings, CABAC      : Yes
    Format settings, ReFrames   : 5 frames
    Codec ID                    : V_MPEG4/ISO/AVC
    Duration                    : 1 h 44 min
    Bit rate                    : 3 500 kb/s
    Width                       : 1 920 pixels
    Height                      : 800 pixels
    Display aspect ratio        : 2.40:1
    Frame rate mode             : Constant
    Frame rate                  : 23.976 (24000/1001) FPS
    Color space                 : YUV
    Chroma subsampling          : 4:2:0
    Bit depth                   : 8 bits
    Scan type                   : Progressive
    Bits/(Pixel*Frame)          : 0.095
    Stream size                 : 2.46 GiB (80%)
    Title                       : CinemaniaHDD
    Writing library             : x264 core 157 r2935 545de2f
    Encoding settings           : cabac=1 / ref=5 / deblock=1:0:0 / analyse=0x3:0x113 / me=hex / subme=8 / psy=1 / psy_rd=1.00:0.00 / mixed_ref=1 / me_range=16 / chroma_me=1 / trellis=2 / 8x8dct=1 / cqm=0 / deadzone=21,11 / fast_pskip=1 / chroma_qp_offset=-2 / threads=25 / lookahead_threads=4 / sliced_threads=0 / nr=0 / decimate=1 / interlaced=0 / bluray_compat=0 / constrained_intra=0 / bframes=3 / b_pyramid=2 / b_adapt=1 / b_bias=0 / direct=3 / weightb=1 / open_gop=0 / weightp=2 / keyint=240 / keyint_min=24 / scenecut=40 / intra_refresh=0 / rc_lookahead=50 / rc=abr / mbtree=1 / bitrate=3500 / ratetol=1.0 / qcomp=0.60 / qpmin=0 / qpmax=69 / qpstep=4 / vbv_maxrate=62500 / vbv_bufsize=78125 / nal_hrd=none / filler=0 / ip_ratio=1.40 / aq=1:1.00
    Default                     : Yes
    Forced                      : No
    Color range                 : Limited
    Color primaries             : BT.709
    Transfer characteristics    : BT.709
    Matrix coefficients         : BT.709

    Audio #1
    ID                          : 2
    Format                      : AC-3
    Format/Info                 : Audio Coding 3
    Commercial name             : Dolby Digital
    Codec ID                    : A_AC3
    Duration                    : 1 h 44 min
    Bit rate mode               : Constant
    Bit rate                    : 384 kb/s
    Channel(s)                  : 6 channels
    Channel layout              : L R C LFE Ls Rs
    Sampling rate               : 48.0 kHz
    Frame rate                  : 31.250 FPS (1536 SPF)
    Bit depth                   : 16 bits
    Compression mode            : Lossy
    Delay relative to video     : 19 ms
    Stream size                 : 286 MiB (9%)
    Title                       : Español latino [CinemaniaHDD]
    Language                    : Spanish
    Service kind                : Complete Main
    Default                     : Yes
    Forced                      : No

    Audio #2
    ID                          : 3
    Format                      : AC-3
    Format/Info                 : Audio Coding 3
    Commercial name             : Dolby Digital
    Codec ID                    : A_AC3
    Duration                    : 1 h 44 min
    Bit rate mode               : Constant
    Bit rate                    : 448 kb/s
    Channel(s)                  : 6 channels
    Channel layout              : L R C LFE Ls Rs
    Sampling rate               : 48.0 kHz
    Frame rate                  : 31.250 FPS (1536 SPF)
    Bit depth                   : 16 bits
    Compression mode            : Lossy
    Delay relative to video     : -5 ms
    Stream size                 : 333 MiB (11%)
    Title                       : Inglés [CinemaniaHDD]
    Language                    : English
    Service kind                : Complete Main
    Default                     : No
    Forced                      : No

    Text #1
    ID                          : 4
    Format                      : UTF-8
    Codec ID                    : S_TEXT/UTF8
    Codec ID/Info               : UTF-8 Plain Text
    Duration                    : 1 h 37 min
    Bit rate                    : 50 b/s
    Count of elements           : 1263
    Stream size                 : 36.0 KiB (0%)
    Title                       : Español latino [CinemaniaHDD]
    Language                    : Spanish
    Default                     : No
    Forced                      : No

    Text #2
    ID                          : 5
    Format                      : UTF-8
    Codec ID                    : S_TEXT/UTF8
    Codec ID/Info               : UTF-8 Plain Text
    Duration                    : 1 h 37 min
    Bit rate                    : 0 b/s
    Count of elements           : 16
    Stream size                 : 322 Bytes (0%)
    Title                       : Forzados [CinemaniaHDD]
    Language                    : Spanish
    Default                     : Yes
    Forced                      : No

    Menu
    00:00:00.000                : :Studio Logo
    00:00:17.267                : :Opening Credits
    00:03:39.094                : :Title Sequence
    00:03:55.318                : :Ruiz Meets Chris
    00:07:37.290                : :Chandier Comes To Ruiz
    00:10:46.229                : :Riot Police
    00:13:08.121                : :Chris Gives A Town Tour
    00:17:17.870                : :Issa Talks To His Friends
    00:19:20.451                : :Chris Talks To Girls
    00:21:46.138                : :Buss Is At Roof Top
    00:23:31.410                : :Jojo Grill Under The Sun
    00:24:46.527                : :Chris Is In A Market
    00:28:15.611                : :Zorro Looks For Johnny
    00:30:20.068                : :Zorro Comes To Mayor
    00:31:26.593                : :Chris Enters Into Arbitration
    00:35:27.626                : :Chris Give A Mission To Ruiz
    00:36:39.155                : :Ruiz Meets Salah
    00:39:39.878                : :Ruiz Asks About Salah
    00:40:21.836                : :Issa And His Friends
    00:41:29.862                : :Harassment
    00:44:14.610                : :Looking For Issa
    00:47:39.190                : :Issa Runs
    00:51:02.601                : :Buzz Films
    00:53:19.905                : :The Kids Come To Mayor
    00:54:59.546                : :Chris Needs A Help
    00:57:23.231                : :Issa Is In The Car
    00:58:59.661                : :Ruiz Drives The Car
    00:59:52.422                : :The Cops Need Buzz
    01:02:23.448                : :Stingy Comes To Salah
    01:07:31.214                : :Ruiz Talks To Salah
    01:09:33.544                : :Ruiz Goes To Get Issa
    01:10:55.710                : :Chris Takes The Cub To Zorro
    01:13:25.943                : :Issa Stares Outside
    01:17:09.416                : :Going Home
    01:19:26.679                : :Gwada Cries
    01:21:49.988                : :Ruiz Meets Gwada
    01:26:20.509                : :Patrolling
    01:28:02.486                : :Issa Waits For The Car
    01:32:36.176                : :Retaliation
    01:34:20.446                : :Mayor Comes To The Building
    01:36:12.934                : :Stigny Is Mad
    01:40:06.167                : :End Credits

  • Peso: 3.07 GiB

Sinopsis

Montfermeil, un suburbio al este de París. Stéphane (Damien Bonnard) acaba de unirse a la Brigada de Lucha contra la Delincuencia, donde conoce a sus nuevos compañeros, Chris (Alexis Manenti) y Gwada (Djibril Zonga), dos agentes con experiencia en las enormes tensiones que existen entre los distintos grupos organizados por el control del barrio.

Ficha técnica

Video trailer de la película

Enlaces de descarga

Rip de Bluray

Descargar Los miserables (2019) 1080p Latino




Aportes de DPeliculasHDmega la pass es:dpeliculashdmega.org Aportes de CinemaniaHD la pass es:cinemaniahdd.com
Guardado en : Crimen , Drama , Suspenso

Películas relacionadas

descargar Los miserables (2019) 1080p Latino 1080p 1080p gratis, Los miserables (2019) 1080p Latino 1080p mega 1 link, Los miserables (2019) 1080p Latino 1080p pelicula completa, descargar Los miserables (2019) 1080p Latino 1080p gratis en mega.

Los miserables (2019) 1080p Latino pelicula full hd, Los miserables (2019) 1080p Latino mega latino, Los miserables (2019) 1080p Latino 4k latino, Los miserables (2019) 1080p Latino pelicula completa, Los miserables (2019) 1080p Latino descargar gratis, descargar Los miserables (2019) 1080p Latino pelicula latino, Los miserables (2019) 1080p Latino 1 link mega, Los miserables (2019) 1080p Latino 1 link google drive, Los miserables (2019) 1080p Latino hd 1080p latino.
Comentarios 0