×

¿Problemas para descargar con Mozilla, EDGE? Deshabilita la opción "Abrir vinculos en una pestaña nueva" tal como lo muestra ésta imagen.

¡Los Jóvenes Titanes en Acción! y DC Super Hero Girls: Caos en el Multiverso (2022) Web-DL 1080p Latino

375 vistas

Información de ¡Los Jóvenes Titanes en Acción! y DC Super Hero Girls: Caos en el Multiverso (2022) Web-DL 1080p Latino

Datos de la película

  • Calidad: WEBDL
  • Audio: Español Latino AC3 5.1 WEB-DL - Ingles AC3 5.1 WEB-DL
  • Subtitulos: Español Latino SRT- FORZADOS SRT
  • Resolución: 1920x1080p
  • Formato: MKV
  • Codec: H.264
  • Encoder: CinemaniaHD
  • Mediainfo: Clic para Mostrar Datos Ver
  • Teen Titans Go & DC Super Hero Girls. Caos en el Multiverso (2022) WebDL 1080p Latino.mkv
    Format                      : Matroska
    Format version              : Version 4
    File size                   : 3.97 GiB
    Duration                    : 1 h 18 min
    Overall bit rate            : 7 230 kb/s
    Movie name                  : Teen Titans Go! & DC Super Hero Girls Mayhem in the Multiverse (2022) CinemaniaHDD.Net
    Encoded date                : UTC 2022-05-25 04:19:49
    Writing application         : mkvmerge v56.1.0 ('My Friend') 64-bit
    Writing library             : libebml v1.4.2 + libmatroska v1.6.4
    Attachments                 : CINEMANIAHD.png

    Video
    ID                          : 1
    Format                      : AVC
    Format/Info                 : Advanced Video Codec
    Format profile              : High@L4
    Format settings             : CABAC / 4 Ref Frames
    Format settings, CABAC      : Yes
    Format settings, Reference  : 4 frames
    Codec ID                    : V_MPEG4/ISO/AVC
    Duration                    : 1 h 18 min
    Bit rate                    : 6 459 kb/s
    Width                       : 1 920 pixels
    Height                      : 1 080 pixels
    Display aspect ratio        : 16:9
    Frame rate mode             : Constant
    Frame rate                  : 23.976 (24000/1001) FPS
    Color space                 : YUV
    Chroma subsampling          : 4:2:0
    Bit depth                   : 8 bits
    Scan type                   : Progressive
    Bits/(Pixel*Frame)          : 0.130
    Stream size                 : 3.55 GiB (89%)
    Title                       : Web HD1080p [CinemaniaHDD]
    Language                    : English
    Default                     : Yes
    Forced                      : Yes
    Color range                 : Limited
    Color primaries             : BT.709
    Transfer characteristics    : BT.709
    Matrix coefficients         : BT.709

    Audio #1
    ID                          : 2
    Format                      : AC-3
    Format/Info                 : Audio Coding 3
    Commercial name             : Dolby Digital
    Codec ID                    : A_AC3
    Duration                    : 1 h 18 min
    Bit rate mode               : Constant
    Bit rate                    : 384 kb/s
    Channel(s)                  : 6 channels
    Channel layout              : L R C LFE Ls Rs
    Sampling rate               : 48.0 kHz
    Frame rate                  : 31.250 FPS (1536 SPF)
    Compression mode            : Lossy
    Stream size                 : 216 MiB (5%)
    Title                       : Español Latino [CinemaniaHDD]
    Language                    : Spanish
    Service kind                : Complete Main
    Default                     : Yes
    Forced                      : Yes

    Audio #2
    ID                          : 3
    Format                      : AC-3
    Format/Info                 : Audio Coding 3
    Commercial name             : Dolby Digital
    Codec ID                    : A_AC3
    Duration                    : 1 h 18 min
    Bit rate mode               : Constant
    Bit rate                    : 384 kb/s
    Channel(s)                  : 6 channels
    Channel layout              : L R C LFE Ls Rs
    Sampling rate               : 48.0 kHz
    Frame rate                  : 31.250 FPS (1536 SPF)
    Compression mode            : Lossy
    Stream size                 : 216 MiB (5%)
    Title                       : Ingles [CinemaniaHDD]
    Language                    : English
    Service kind                : Complete Main
    Default                     : No
    Forced                      : No

    Text #1
    ID                          : 4
    Format                      : UTF-8
    Codec ID                    : S_TEXT/UTF8
    Codec ID/Info               : UTF-8 Plain Text
    Duration                    : 51 min 47 s
    Bit rate                    : 0 b/s
    Count of elements           : 5
    Stream size                 : 109 Bytes (0%)
    Title                       : Forzados-SRT [CinemaniaHDD]
    Language                    : Spanish
    Default                     : Yes
    Forced                      : Yes

    Text #2
    ID                          : 5
    Format                      : UTF-8
    Codec ID                    : S_TEXT/UTF8
    Codec ID/Info               : UTF-8 Plain Text
    Duration                    : 1 h 17 min
    Bit rate                    : 86 b/s
    Count of elements           : 1442
    Stream size                 : 48.9 KiB (0%)
    Title                       : Español-SRT [CinemaniaHDD]
    Language                    : Spanish
    Default                     : No
    Forced                      : No

    Text #3
    ID                          : 6
    Format                      : UTF-8
    Codec ID                    : S_TEXT/UTF8
    Codec ID/Info               : UTF-8 Plain Text
    Duration                    : 1 h 14 min
    Bit rate                    : 84 b/s
    Count of elements           : 1462
    Stream size                 : 45.7 KiB (0%)
    Title                       : Ingles-SRT [CinemaniaHDD]
    Language                    : English
    Default                     : No
    Forced                      : No

  • Peso: 3.97 GiB

Sinopsis

Descargar ¡Los Jóvenes Titanes en Acción! y DC Super Hero Girls: Caos en el Multiverso. Con la ayuda de un antiguo poder kryptoniano, Lex Luthor une a los supervillanos del mundo para capturar a todos los superhéroes de la Tierra, hasta que… solo quedan las DC Super Hero Girls para detener a Legion of Doom. Nuestros héroes deben cruzar dimensiones para rescatar a sus compañeros superhéroes de la Zona Fantasma, pero un giro equivocado fortuito los lleva a la Torre de los Titanes, ¡donde encuentran aliados muy necesarios en los Jóvenes Titanes!

Ficha técnica

Video trailer de la película

Enlaces de descarga

Rip de Bluray

Descargar ¡Los Jóvenes Titanes en Acción! y DC Super Hero Girls: Caos en el Multiverso (2022) Web-DL 1080p Latino




Aportes de DPeliculasHDmega la pass es:dpeliculashdmega.org Aportes de CinemaniaHD la pass es:cinemaniahdd.com
Guardado en : Acción , Animación , Comedia

Películas relacionadas

¡Los Jóvenes Titanes en Acción! y DC Super Hero Girls: Caos en el Multiverso (2022) Web-DL 1080p Latino pelicula full hd, ¡Los Jóvenes Titanes en Acción! y DC Super Hero Girls: Caos en el Multiverso (2022) Web-DL 1080p Latino mega latino, ¡Los Jóvenes Titanes en Acción! y DC Super Hero Girls: Caos en el Multiverso (2022) Web-DL 1080p Latino 4k latino, ¡Los Jóvenes Titanes en Acción! y DC Super Hero Girls: Caos en el Multiverso (2022) Web-DL 1080p Latino pelicula completa, ¡Los Jóvenes Titanes en Acción! y DC Super Hero Girls: Caos en el Multiverso (2022) Web-DL 1080p Latino descargar gratis, descargar ¡Los Jóvenes Titanes en Acción! y DC Super Hero Girls: Caos en el Multiverso (2022) Web-DL 1080p Latino pelicula latino, ¡Los Jóvenes Titanes en Acción! y DC Super Hero Girls: Caos en el Multiverso (2022) Web-DL 1080p Latino 1 link mega, ¡Los Jóvenes Titanes en Acción! y DC Super Hero Girls: Caos en el Multiverso (2022) Web-DL 1080p Latino 1 link google drive, ¡Los Jóvenes Titanes en Acción! y DC Super Hero Girls: Caos en el Multiverso (2022) Web-DL 1080p Latino hd 1080p latino.
Comentarios 0