Los Inquilinos (2018) 1080p Latino

690 vistas
1 estrella2 estrellas3 estrellas4 estrellas5 estrellas (1 votos, promedio: 4,00 de 5)
Cargando…

Información de Los Inquilinos (2018) 1080p Latino

Datos de la película

  • Calidad: 1080p
  • Audio: Español Latino AC3 5.1 BLURAY
  • Subtitulos: No
  • Resolución: 1920x1080
  • Formato: MKV
  • Codec: H.264
  • Encoder: Cinemaniahdd
  • Mediainfo: Clic para Mostrar Datos Ver
  • Los Inquilinos (2018) 1080p Latino.mkv
    Format                      : Matroska
    Format version              : Version 4
    File size                   : 2.50 GiB
    Duration                    : 1 h 31 min
    Overall bit rate            : 3 889 kb/s
    Movie name                  : CinemaniaHDD.Net
    Encoded date                : UTC 2019-03-13 23:21:10
    Writing application         : mkvmerge v22.0.0 ('At The End Of The World') 64-bit
    Writing library             : libebml v1.3.5 + libmatroska v1.4.8

    Video
    ID                          : 1
    Format                      : AVC
    Format/Info                 : Advanced Video Codec
    Format profile              : [email protected]
    Format settings             : CABAC / 4 Ref Frames
    Format settings, CABAC      : Yes
    Format settings, ReFrames   : 4 frames
    Codec ID                    : V_MPEG4/ISO/AVC
    Duration                    : 1 h 31 min
    Bit rate                    : 3 500 kb/s
    Width                       : 1 920 pixels
    Height                      : 1 080 pixels
    Display aspect ratio        : 16:9
    Frame rate mode             : Constant
    Frame rate                  : 23.976 (24000/1001) FPS
    Color space                 : YUV
    Chroma subsampling          : 4:2:0
    Bit depth                   : 8 bits
    Scan type                   : Progressive
    Bits/(Pixel*Frame)          : 0.070
    Stream size                 : 2.21 GiB (88%)
    Title                       : CinemaniaHDD.Net
    Writing library             : x264 core 157 r2935 545de2f
    Encoding settings           : cabac=1 / ref=4 / deblock=1:0:0 / analyse=0x3:0x113 / me=hex / subme=8 / psy=1 / psy_rd=1.00:0.00 / mixed_ref=1 / me_range=16 / chroma_me=1 / trellis=2 / 8x8dct=1 / cqm=0 / deadzone=21,11 / fast_pskip=1 / chroma_qp_offset=-2 / threads=34 / lookahead_threads=5 / sliced_threads=0 / nr=0 / decimate=1 / interlaced=0 / bluray_compat=0 / constrained_intra=0 / bframes=3 / b_pyramid=2 / b_adapt=1 / b_bias=0 / direct=3 / weightb=1 / open_gop=0 / weightp=2 / keyint=240 / keyint_min=24 / scenecut=40 / intra_refresh=0 / rc_lookahead=50 / rc=abr / mbtree=1 / bitrate=3500 / ratetol=1.0 / qcomp=0.60 / qpmin=0 / qpmax=69 / qpstep=4 / vbv_maxrate=62500 / vbv_bufsize=78125 / nal_hrd=none / filler=0 / ip_ratio=1.40 / aq=1:1.00
    Default                     : Yes
    Forced                      : No
    Color range                 : Limited
    Color primaries             : BT.709
    Transfer characteristics    : BT.709
    Matrix coefficients         : BT.709

    Audio
    ID                          : 2
    Format                      : AC-3
    Format/Info                 : Audio Coding 3
    Commercial name             : Dolby Digital
    Codec ID                    : A_AC3
    Duration                    : 1 h 31 min
    Bit rate mode               : Constant
    Bit rate                    : 448 kb/s
    Channel(s)                  : 6 channels
    Channel layout              : L R C LFE Ls Rs
    Sampling rate               : 48.0 kHz
    Frame rate                  : 31.250 FPS (1536 SPF)
    Bit depth                   : 16 bits
    Compression mode            : Lossy
    Delay relative to video     : -5 ms
    Stream size                 : 295 MiB (12%)
    Title                       : CinemaniaHDD.Net
    Language                    : Spanish
    Service kind                : Complete Main
    Default                     : Yes
    Forced                      : No

    Menu
    00:00:00.000                : :Chapter 1
    00:07:11.723                : :Chapter 2
    00:14:14.312                : :Chapter 3
    00:22:51.787                : :Chapter 4
    00:30:45.052                : :Chapter 5
    00:38:24.511                : :Chapter 6
    00:45:27.642                : :Chapter 7
    00:52:42.117                : :Chapter 8
    01:02:56.606                : :Chapter 9
    01:08:15.675                : :Chapter 10
    01:14:50.611                : :Chapter 11
    01:23:15.365                : :Chapter 12

  • Peso: 2.50 GiB

Sinopsis

Luzma y Demián, una joven pareja, acaban de mudarse a un antiguo barrio tratando de dejar atrás un incidente que los atormenta. Con la esperanza, hacen todo lo posible para tomar este cambio como una oportunidad para comenzar de nuevo. Sin embargo, Luzma comienza a descubrir que sus vecinos esconden terribles secretos que conducen a fenómenos paranormales; sin embargo, Demian está empezando a creer que Luzma está perdiendo la cabeza.

Ficha técnica

  • Titulo original: Los Inquilinos
  • Fecha de lanzamiento: 02-11-2018 (Mexico)
  • Director: Chava Cartas
  • Género: Terror
  • Puntuación: 4.0 1 votos
  • Duración:
    1h 28m

Video trailer de la película

Enlaces de descarga

Rip de Bluray

Descargar Los Inquilinos (2018) 1080p Latino




Aportes de DPeliculasHDmega la pass es:dpeliculashdmega.org Aportes de CinemaniaHD la pass es:cinemaniahdd.com
Guardado en : Terror

Películas relacionadas

  • Operacion Overlord (2018) 4K UHD HDR Latino

    2018
    Operacion Overlord (2018) 4K UHD HDR Latino

    5.0 1h 50m 2018

    Descargar Operacion Overlord (2018) 4K UHD HDR Latino, Mega, Google Drive. La víspera del Día D, un...

    Director: Roxanne Cuenca

    Género: 4K HDR

    Actores: Wyatt Russell

  • Verano del 84 (2018) 1080p Latino

    2018
    Verano del 84 (2018) 1080p Latino

    5.0 1h 45m 2018

    Verano, 1984: La época perfecta para tener 15 años y ser libre. Pero cuando un teórico de las conspiraciones...

    Director: Yoann-Karl Whissell

    Género: Drama

    Actores: William MacDonald

  • Happy Hunting (2017) WEB-DL 1080p Latino

    2017
    Happy Hunting (2017) WEB-DL 1080p Latino

    5.0 1h 31m 2017

    Un alcohólico sin rumbo tendrá que luchar con la abstinencia y con algunos pueblerinos psicóticos...

    Director: Louie Gibson

    Género: Suspense

    Actores: Michael Tipps

  • Mandy (2018) 1080p Latino

    2018
    Mandy (2018) 1080p Latino

    5.0 2h 2m 2018

    Ambientada en 1983, narra la historia de Red Miller, un hombre que va tras las caza de los miembros de...

    Director: Panos Cosmatos

    Género: Acción

    Actores: Zeva DuVall

  • Traffik (2018) 1080p Latino

    2018
    Traffik (2018) 1080p Latino

    0.0 1h 36m 2018

    Una pareja que se va de fin de semana a las montañas se ve acosada por una banda. Solos en las montañas,...

    Director: Deon Taylor

    Género: Suspense

    Actores: William W. Barbour

Comentarios 0