Los Increibles 2 (2018) 4K UHD HDR Latino

1.061 vistas
1 estrella2 estrellas3 estrellas4 estrellas5 estrellas (1 votos, promedio: 5,00 de 5)
Cargando…

Información de Los Increibles 2 (2018) 4K UHD HDR Latino

Datos de la película

  • Calidad: 4K HDR
  • Audio: Se especifica abajo de la Sinopsis
  • Subtitulos: Español Latino PGS - Ingles PGS
  • Resolución: 3840x1608p
  • Formato: MKV
  • Codec: HEVC
  • Encoder: CinefiloCool
  • Mediainfo: Clic para Mostrar Datos Ver
  • Los Increibles 2 (2018) UHD HDR Latino.mkv
    Format                      : Matroska
    Format version              : Version 4
    File size                   : 8.63 GiB
    Duration                    : 1 h 57 min
    Overall bit rate            : 10.5 Mb/s
    Movie name                  : CinemaniaHDD.Net
    Encoded date                : UTC 2019-02-12 03:31:27
    Writing application         : mkvmerge v30.1.0 ('Forever And More') 64-bit
    Writing library             : libebml v1.3.6 + libmatroska v1.4.9

    Video
    ID                          : 1
    Format                      : HEVC
    Format/Info                 : High Efficiency Video Coding
    Commercial name             : HDR10
    Format profile              : Main [email protected]@High
    Codec ID                    : V_MPEGH/ISO/HEVC
    Duration                    : 1 h 57 min
    Bit rate                    : 8 795 kb/s
    Width                       : 3 840 pixels
    Height                      : 1 608 pixels
    Display aspect ratio        : 2.40:1
    Frame rate mode             : Constant
    Frame rate                  : 23.976 (24000/1001) FPS
    Color space                 : YUV
    Chroma subsampling          : 4:2:0 (Type 2)
    Bit depth                   : 10 bits
    Bits/(Pixel*Frame)          : 0.059
    Stream size                 : 7.24 GiB (84%)
    Title                       : 2160p HDR [Bluray]
    Writing library             : x265 2.8+58-d17bc7714ed2:[Windows][GCC 8.2.0][64 bit] 10bit
    Encoding settings           : cpuid=1111039 / frame-threads=5 / numa-pools=36 / wpp / no-pmode / no-pme / no-psnr / no-ssim / log-level=2 / input-csp=1 / input-res=3840x1608 / interlace=0 / total-frames=169514 / level-idc=51 / high-tier=1 / uhd-bd=0 / ref=4 / no-allow-non-conformance / repeat-headers / annexb / aud / hrd / info / hash=0 / no-temporal-layers / no-open-gop / min-keyint=24 / keyint=240 / gop-lookahead=0 / bframes=4 / b-adapt=2 / b-pyramid / bframe-bias=0 / rc-lookahead=25 / lookahead-slices=4 / scenecut=40 / radl=0 / no-intra-refresh / ctu=64 / min-cu-size=8 / rect / no-amp / max-tu-size=32 / tu-inter-depth=1 / tu-intra-depth=1 / limit-tu=0 / rdoq-level=2 / dynamic-rd=0.00 / no-ssim-rd / signhide / no-tskip / nr-intra=0 / nr-inter=0 / no-constrained-intra / no-strong-intra-smoothing / max-merge=3 / limit-refs=3 / limit-modes / me=3 / subme=3 / merange=57 / temporal-mvp / weightp / no-weightb / no-analyze-src-pics / deblock=-3:-3 / no-sao / no-sao-non-deblock / rd=4 / no-early-skip / rskip / no-fast-intra / no-tskip-fast / no-cu-lossless / no-b-intra / no-splitrd-skip / rdpenalty=0 / psy-rd=2.00 / psy-rdoq=1.00 / no-rd-refine / no-lossless / cbqpoffs=0 / crqpoffs=0 / rc=crf / crf=17.0 / qcomp=0.60 / qpstep=4 / stats-write=0 / stats-read=0 / vbv-maxrate=160000 / vbv-bufsize=160000 / vbv-init=0.9 / crf-max=0.0 / crf-min=0.0 / ipratio=1.40 / pbratio=1.30 / aq-mode=1 / aq-strength=1.00 / cutree / zone-count=0 / no-strict-cbr / qg-size=32 / no-rc-grain / qpmax=69 / qpmin=0 / no-const-vbv / sar=1 / overscan=0 / videoformat=5 / range=0 / colorprim=9 / transfer=16 / colormatrix=9 / chromaloc=1 / chromaloc-top=2 / chromaloc-bottom=2 / display-window=0 / master-display=G(13250,34500)B(7500,3000)R(34000,16000)WP(15635,16450)L(10000000,0) / max-cll=0,0 / min-luma=0 / max-luma=1023 / log2-max-poc-lsb=8 / vui-timing-info / vui-hrd-info / slices=1 / no-opt-qp-pps / no-opt-ref-list-length-pps / no-multi-pass-opt-rps / scenecut-bias=0.05 / no-opt-cu-delta-qp / no-aq-motion / hdr / hdr-opt / no-dhdr10-opt / no-idr-recovery-sei / analysis-reuse-level=5 / scale-factor=0 / refine-intra=0 / refine-inter=0 / refine-mv=0 / no-limit-sao / ctu-info=0 / no-lowpass-dct / refine-mv-type=0 / copy-pic=1 / max-ausize-factor=1.0 / no-dynamic-refine / no-single-sei
    Default                     : Yes
    Forced                      : No
    Color range                 : Limited
    Color primaries             : BT.2020
    Transfer characteristics    : PQ
    Matrix coefficients         : BT.2020 non-constant
    Mastering display color pri : Display P3
    Mastering display luminance : min: 0.0000 cd/m2, max: 1000 cd/m2

    Audio #1
    ID                          : 2
    Format                      : E-AC-3
    Format/Info                 : Enhanced AC-3
    Commercial name             : Dolby Digital Plus
    Format profile              : Blu-ray Disc
    Codec ID                    : A_EAC3
    Duration                    : 1 h 57 min
    Bit rate mode               : Constant
    Bit rate                    : 1 024 kb/s
    Channel(s)                  : 8 channels
    Channel layout              : L R C LFE Ls Rs Lb Rb
    Sampling rate               : 48.0 kHz
    Frame rate                  : 31.250 FPS (1536 SPF)
    Compression mode            : Lossy
    Stream size                 : 863 MiB (10%)
    Title                       : E-AC3_7.1_Bluray_Esp
    Language                    : Spanish
    Service kind                : Complete Main
    Default                     : Yes
    Forced                      : Yes

    Audio #2
    ID                          : 3
    Format                      : AC-3
    Format/Info                 : Audio Coding 3
    Commercial name             : Dolby Digital
    Codec ID                    : A_AC3
    Duration                    : 1 h 57 min
    Bit rate mode               : Constant
    Bit rate                    : 640 kb/s
    Channel(s)                  : 6 channels
    Channel layout              : L R C LFE Ls Rs
    Sampling rate               : 48.0 kHz
    Frame rate                  : 31.250 FPS (1536 SPF)
    Bit depth                   : 16 bits
    Compression mode            : Lossy
    Stream size                 : 539 MiB (6%)
    Title                       : AC3_5.1_Bluray_Eng
    Language                    : English
    Service kind                : Complete Main
    Default                     : No
    Forced                      : No

    Text #1
    ID                          : 4
    Format                      : PGS
    Muxing mode                 : zlib
    Codec ID                    : S_HDMV/PGS
    Codec ID/Info               : Picture based subtitle format used on BDs/HD-DVDs
    Duration                    : 1 h 57 min
    Bit rate                    : 39.6 kb/s
    Count of elements           : 3522
    Stream size                 : 33.2 MiB (0%)
    Title                       : Sub_Esp [PGS]
    Language                    : Spanish
    Default                     : No
    Forced                      : No

    Text #2
    ID                          : 5
    Format                      : PGS
    Muxing mode                 : zlib
    Codec ID                    : S_HDMV/PGS
    Codec ID/Info               : Picture based subtitle format used on BDs/HD-DVDs
    Duration                    : 1 h 57 min
    Bit rate                    : 51.2 kb/s
    Count of elements           : 4636
    Stream size                 : 42.9 MiB (0%)
    Title                       : Sub_Eng [PGS]
    Language                    : English
    Default                     : No
    Forced                      : No

    Menu
    00:00:00.000                : :00:00:00.000
    00:03:22.327                : :00:03:22.327
    00:08:53.616                : :00:08:53.616
    00:09:36.784                : :00:09:36.784
    00:13:38.276                : :00:13:38.276
    00:15:44.735                : :00:15:44.735
    00:21:19.737                : :00:21:19.737
    00:23:28.282                : :00:23:28.282
    00:27:08.794                : :00:27:08.794
    00:28:59.571                : :00:28:59.571
    00:35:10.900                : :00:35:10.900
    00:39:07.845                : :00:39:07.845
    00:42:43.894                : :00:42:43.894
    00:43:42.411                : :00:43:42.411
    00:47:35.352                : :00:47:35.352
    00:48:53.889                : :00:48:53.889
    00:54:15.585                : :00:54:15.585
    00:56:16.039                : :00:56:16.039
    01:00:58.696                : :01:00:58.696
    01:02:01.884                : :01:02:01.884
    01:06:55.511                : :01:06:55.511
    01:09:18.237                : :01:09:18.237
    01:11:28.200                : :01:11:28.200
    01:12:37.686                : :01:12:37.686
    01:14:39.266                : :01:14:39.266
    01:18:00.967                : :01:18:00.967
    01:20:32.536                : :01:20:32.536
    01:25:01.930                : :01:25:01.930
    01:27:59.440                : :01:27:59.440
    01:31:53.924                : :01:31:53.924
    01:33:26.434                : :01:33:26.434
    01:36:25.237                : :01:36:25.237
    01:37:45.192                : :01:37:45.192
    01:43:56.897                : :01:43:56.897
    01:45:35.912                : :01:45:35.912
    01:47:30.902                : :01:47:30.902

  • Peso: 8.63 GiB

Sinopsis

Descargar Los Increibles 2 (2018) 4K UHD HDR Latino, Mega, Google Drive. Helen tiene que liderar una campaña para que los superhéroes regresen, mientras Bob vive su vida “normal” con Violet, Dash y el bebé Jack-Jack —cuyos superpoderes descubriremos—. Su misión se va a pique cuando aparece un nuevo villano con un brillante plan que lo amenaza todo. Pero los Parr no se amedrentarán y menos teniendo a Frozone de su parte.

Audio Español Latino E-AC3 7.1 Bluray – Ingles AC3 5.1 Bluray

Ficha técnica

Video trailer de la película

Enlaces de descarga

Rip de Bluray

Descargar Los Increibles 2 (2018) 4K UHD HDR Latino




Aportes de DPeliculasHDmega la pass es:dpeliculashdmega.org Aportes de CinemaniaHD la pass es:cinemaniahdd.com
Guardado en : 4K HDR , 4K UHD , Acción , Animación , Aventura , Familia

Películas relacionadas

Comentarios 0