Los Increíbles 2 (2018) 1080p Latino

3.578 vistas
1 estrella2 estrellas3 estrellas4 estrellas5 estrellas (9 votos, promedio: 4,00 de 5)
Cargando…

Información de Los Increíbles 2 (2018) 1080p Latino

Datos de la película

  • Calidad: 1080p
  • Audio: Español Latino AC3 5.1 iTUNES - Ingles AC3 5.1 BLURAY
  • Subtitulos: Español Latino SRT - Ingles SRT
  • Resolución: 1920x808p
  • Formato: MKV
  • Codec: H.264
  • Encoder: CinefiloCool
  • Mediainfo: Clic para Mostrar Datos Ver
  • Los Increibles 2 (2018) 1080p Latino.mkv
    Format                      : Matroska
    Format version              : Version 4 / Version 2
    File size                   : 3.55 GiB
    Duration                    : 1 h 57 min
    Overall bit rate            : 4 314 kb/s
    Movie name                  : CinemaniaHDD.Net
    Encoded date                : UTC 2018-11-02 21:12:25 / UTC 2018-11-02T06:38:05Z
    Writing application         : mkvmerge v25.0.0 ('Prog Noir') 64-bit
    Writing library             : libebml v1.3.6 + libmatroska v1.4.9 / Lavf57.7.2

    Video
    ID                          : 1
    Format                      : AVC
    Format/Info                 : Advanced Video Codec
    Format profile              : [email protected]
    Format settings             : CABAC / 5 Ref Frames
    Format settings, CABAC      : Yes
    Format settings, RefFrames  : 5 frames
    Codec ID                    : V_MPEG4/ISO/AVC
    Duration                    : 1 h 57 min
    Bit rate                    : 3 500 kb/s
    Width                       : 1 920 pixels
    Height                      : 808 pixels
    Display aspect ratio        : 2.40:1
    Frame rate mode             : Constant
    Frame rate                  : 23.976 (24000/1001) FPS
    Color space                 : YUV
    Chroma subsampling          : 4:2:0
    Bit depth                   : 8 bits
    Scan type                   : Progressive
    Bits/(Pixel*Frame)          : 0.094
    Stream size                 : 2.80 GiB (79%)
    Title                       : HD1080p [Bluray]
    Writing library             : x264 core 155 r2893 b00bcaf
    Encoding settings           : cabac=1 / ref=5 / deblock=1:0:0 / analyse=0x3:0x113 / me=hex / subme=8 / psy=1 / psy_rd=1.00:0.00 / mixed_ref=1 / me_range=16 / chroma_me=1 / trellis=2 / 8x8dct=1 / cqm=0 / deadzone=21,11 / fast_pskip=1 / chroma_qp_offset=-2 / threads=25 / lookahead_threads=4 / sliced_threads=0 / nr=0 / decimate=1 / interlaced=0 / bluray_compat=0 / constrained_intra=0 / bframes=3 / b_pyramid=2 / b_adapt=1 / b_bias=0 / direct=3 / weightb=1 / open_gop=0 / weightp=2 / keyint=240 / keyint_min=24 / scenecut=40 / intra_refresh=0 / rc_lookahead=50 / rc=abr / mbtree=1 / bitrate=3500 / ratetol=1.0 / qcomp=0.60 / qpmin=0 / qpmax=69 / qpstep=4 / vbv_maxrate=62500 / vbv_bufsize=78125 / nal_hrd=none / filler=0 / ip_ratio=1.40 / aq=1:1.00
    Default                     : Yes
    Forced                      : No
    Color range                 : Limited
    Color primaries             : BT.709
    Transfer characteristics    : BT.709
    Matrix coefficients         : BT.709
    Statistics Tags Issue       : mkvmerge v25.0.0 ('Prog Noir') 64-bit 2018-11-02 21:12:25 / mkvmerge v25.0.0 ('Prog Noir') 64-bit 2018-11-02 21:12:25 / UTC 2018-11-02T06:38:05Z
    FromStats_BitRate           : 3479352
    FromStats_Duration          : 01:57:50.147000000
    FromStats_FrameCount        : 169514
    FromStats_StreamSize        : 3074941565

    Audio #1
    ID                          : 2
    Format                      : AC-3
    Format/Info                 : Audio Coding 3
    Format settings, Endianness : Big
    Codec ID                    : A_AC3
    Duration                    : 1 h 57 min
    Bit rate mode               : Constant
    Bit rate                    : 384 kb/s
    Channel(s)                  : 6 channels
    Channel positions           : Front: L C R, Side: L R, LFE
    Sampling rate               : 48.0 kHz
    Frame rate                  : 31.250 FPS (1536 SPF)
    Bit depth                   : 16 bits
    Compression mode            : Lossy
    Delay relative to video     : 907 ms
    Stream size                 : 324 MiB (9%)
    Title                       : AC3_5.1_Itunes_Esp
    Language                    : Spanish
    Service kind                : Complete Main
    Default                     : Yes
    Forced                      : Yes
    Statistics Tags Issue       : mkvmerge v25.0.0 ('Prog Noir') 64-bit 2018-11-02 21:12:25 / mkvmerge v25.0.0 ('Prog Noir') 64-bit 2018-11-02 21:12:25 / UTC 2018-11-02T06:38:05Z
    FromStats_BitRate           : 384000
    FromStats_Duration          : 01:57:49.152000000
    FromStats_FrameCount        : 220911
    FromStats_StreamSize        : 339319296

    Audio #2
    ID                          : 3
    Format                      : AC-3
    Format/Info                 : Audio Coding 3
    Format settings, Endianness : Big
    Codec ID                    : A_AC3
    Duration                    : 1 h 57 min
    Bit rate mode               : Constant
    Bit rate                    : 448 kb/s
    Channel(s)                  : 6 channels
    Channel positions           : Front: L C R, Side: L R, LFE
    Sampling rate               : 48.0 kHz
    Frame rate                  : 31.250 FPS (1536 SPF)
    Bit depth                   : 16 bits
    Compression mode            : Lossy
    Stream size                 : 378 MiB (10%)
    Title                       : AC3_5.1_Bluray_Eng
    Language                    : English
    Service kind                : Complete Main
    Default                     : No
    Forced                      : No
    Statistics Tags Issue       : mkvmerge v25.0.0 ('Prog Noir') 64-bit 2018-11-02 21:12:25 / mkvmerge v25.0.0 ('Prog Noir') 64-bit 2018-11-02 21:12:25 / UTC 2018-11-02T06:38:05Z
    FromStats_BitRate           : 448000
    FromStats_Duration          : 01:57:50.112000000
    FromStats_FrameCount        : 220941
    FromStats_StreamSize        : 395926272

    Text #1
    ID                          : 4
    Format                      : UTF-8
    Codec ID                    : S_TEXT/UTF8
    Codec ID/Info               : UTF-8 Plain Text
    Title                       : Sub_Forzados
    Language                    : Spanish
    Default                     : Yes
    Forced                      : Yes
    Statistics Tags Issue       : mkvmerge v25.0.0 ('Prog Noir') 64-bit 2018-11-02 21:12:25 / mkvmerge v25.0.0 ('Prog Noir') 64-bit 2018-11-02 21:12:25 / UTC 2018-11-02T06:38:05Z
    FromStats_BitRate           : 1
    FromStats_Duration          : 00:46:08.143000000
    FromStats_FrameCount        : 13
    FromStats_StreamSize        : 503

    Text #2
    ID                          : 5
    Format                      : UTF-8
    Codec ID                    : S_TEXT/UTF8
    Codec ID/Info               : UTF-8 Plain Text
    Title                       : Sub_Esp
    Language                    : Spanish
    Default                     : No
    Forced                      : No
    Statistics Tags Issue       : mkvmerge v25.0.0 ('Prog Noir') 64-bit 2018-11-02 21:12:25 / mkvmerge v25.0.0 ('Prog Noir') 64-bit 2018-11-02 21:12:25 / UTC 2018-11-02T06:38:05Z
    FromStats_BitRate           : 71
    FromStats_Duration          : 01:46:27.096000000
    FromStats_FrameCount        : 1757
    FromStats_StreamSize        : 57135

    Text #3
    ID                          : 6
    Format                      : UTF-8
    Codec ID                    : S_TEXT/UTF8
    Codec ID/Info               : UTF-8 Plain Text
    Title                       : Sub_Eng
    Language                    : English
    Default                     : No
    Forced                      : No
    Statistics Tags Issue       : mkvmerge v25.0.0 ('Prog Noir') 64-bit 2018-11-02 21:12:25 / mkvmerge v25.0.0 ('Prog Noir') 64-bit 2018-11-02 21:12:25 / UTC 2018-11-02T06:38:05Z
    FromStats_BitRate           : 71
    FromStats_Duration          : 01:54:52.060000000
    FromStats_FrameCount        : 2022
    FromStats_StreamSize        : 61364

    Menu
    00:00:00.000                : :00:00:00.000
    00:03:22.327                : :00:03:22.327
    00:08:53.616                : :00:08:53.616
    00:09:36.785                : :00:09:36.784
    00:13:38.276                : :00:13:38.276
    00:15:44.735                : :00:15:44.735
    00:21:19.862                : :00:21:19.737
    00:23:28.282                : :00:23:28.282
    00:27:08.794                : :00:27:08.794
    00:28:59.571                : :00:28:59.571
    00:35:10.942                : :00:35:10.900
    00:39:07.846                : :00:39:07.845
    00:42:43.895                : :00:42:43.894
    00:43:42.411                : :00:43:42.411
    00:47:35.353                : :00:47:35.352
    00:48:53.889                : :00:48:53.889
    00:54:15.586                : :00:54:15.585
    00:56:16.039                : :00:56:16.039
    01:00:58.697                : :01:00:58.696
    01:02:01.885                : :01:02:01.884
    01:06:55.512                : :01:06:55.511
    01:09:18.237                : :01:09:18.237
    01:11:28.201                : :01:11:28.200
    01:12:37.687                : :01:12:37.686
    01:14:39.266                : :01:14:39.266
    01:18:01.051                : :01:18:00.968
    01:20:32.536                : :01:20:32.536
    01:25:01.930                : :01:25:01.930
    01:27:59.441                : :01:27:59.440
    01:31:53.925                : :01:31:53.925
    01:33:26.434                : :01:33:26.434
    01:36:25.238                : :01:36:25.237
    01:37:45.234                : :01:37:45.192
    01:43:56.897                : :01:43:56.897
    01:45:35.913                : :01:45:35.912
    01:47:30.903                : :01:47:30.902

  • Peso: 3.55 GiB

Sinopsis

Descargar Los Increíbles 2 (2018) 1080p Latino; Mega, Google Drive. Helen tiene que liderar una campaña para que los superhéroes regresen, mientras Bob vive su vida “normal” con Violet, Dash y el bebé Jack-Jack —cuyos superpoderes descubriremos—. Su misión se va a pique cuando aparece un nuevo villano con un brillante plan que lo amenaza todo. Pero los Parr no se amedrentarán y menos teniendo a Frozone de su parte.

Ficha técnica

Video trailer de la película

Enlaces de descarga

Rip de Bluray

Descargar Los Increíbles 2 (2018) 1080p Latino




Aportes de DPeliculasHDmega la pass es:dpeliculashdmega.org Aportes de CinemaniaHD la pass es:cinemaniahdd.com
Guardado en : Acción , Animación , Aventura , Familia , HD 1080p

Películas relacionadas

  • El Vacio (2018) Temporada 1 NF 1080p Latino

    2018
    El Vacio (2018) Temporada 1 NF 1080p Latino

    0.0 0h 25m 2018

    Tres adolescentes despiertan en un reino extraño lleno de portales mágicos, enigmas desconcertantes...

    Director: Vito Viscomi

    Género: Animación

    Actores: Mark Hildreth

  • Wolf Warrior 2 (2017) 1080p Latino

    2017
    Wolf Warrior 2 (2017) 1080p Latino

    0.0 2h 6m 2017

    Secuela de la película de acción exitosa "Wolf Warrior" (2015) La operación más peligrosa de las...

    Director: Wu Jing

    Género: Acción

    Actores: Yu Qian

  • El príncipe dragón (2019) Temporada 2 NF 1080p Latino

    2018
    El príncipe dragón (2019) Temporada 2 NF 1080p Latino

    0.0 0h 27m 2018

    Antes de marchar hacia Xadia, Callum le pide a Lujanne una lección de magia y Ezran trata de enseñarle...

    Director: Justin Richmond

    Género: Action & Adventure

    Actores: Sasha Rojen

Comentarios 0