×

¿Problemas para descargar con Mozilla, EDGE? Deshabilita la opción "Abrir vinculos en una pestaña nueva" tal como lo muestra ésta imagen.

Los Fabelman (2022) HD 1080p Latino

445 vistas

Información de Los Fabelman (2022) HD 1080p Latino

Datos de la película

  • Calidad: 1080p
  • Audio: Español Latino AC3 5.1 BLURAY - Ingles AC3 5.1 BLURAY
  • Subtitulos: Español Latino SRT- FORZADOS SRT
  • Resolución: 1920x1036p
  • Formato: MKV
  • Codec: H.264
  • Encoder: Melkor
  • Mediainfo: Clic para Mostrar Datos Ver
  • Los Fabelman (2022) HD 1080p Latino.mkv
    Format                      : Matroska
    Format version              : Version 4
    File size                   : 4.80 GiB
    Duration                    : 2 h 30 min
    Overall bit rate            : 4 554 kb/s
    Movie name                  : The Fabelmans (2022) CinemaniaHDD.Net
    Encoded date                : UTC 2023-02-12 02:24:36
    Writing application         : mkvmerge v56.1.0 ('My Friend') 64-bit
    Writing library             : libebml v1.4.2 + libmatroska v1.6.4
    Attachments                 : CINEMANIAHD.png
    Site                        : CinemaniaHDD.Net
    Uploader                    : Melkor

    Video
    ID                          : 1
    Format                      : AVC
    Format/Info                 : Advanced Video Codec
    Format profile              : High@L4.1
    Format settings             : CABAC / 4 Ref Frames
    Format settings, CABAC      : Yes
    Format settings, Reference  : 4 frames
    Codec ID                    : V_MPEG4/ISO/AVC
    Duration                    : 2 h 30 min
    Bit rate                    : 3 500 kb/s
    Width                       : 1 920 pixels
    Height                      : 1 036 pixels
    Display aspect ratio        : 1.85:1
    Frame rate mode             : Constant
    Frame rate                  : 23.976 (24000/1001) FPS
    Color space                 : YUV
    Chroma subsampling          : 4:2:0
    Bit depth                   : 8 bits
    Scan type                   : Progressive
    Bits/(Pixel*Frame)          : 0.073
    Stream size                 : 3.65 GiB (76%)
    Title                       : HD1080p [CinemaniaHDD]
    Writing library             : x264 core 163 r3059 b684ebe0
    Encoding settings           : cabac=1 / ref=4 / deblock=1:-1:-1 / analyse=0x3:0x133 / me=umh / subme=9 / psy=1 / psy_rd=1.00:0.15 / mixed_ref=1 / me_range=16 / chroma_me=1 / trellis=2 / 8x8dct=1 / cqm=0 / deadzone=21,11 / fast_pskip=1 / chroma_qp_offset=-3 / threads=24 / lookahead_threads=2 / sliced_threads=0 / nr=0 / decimate=1 / interlaced=0 / bluray_compat=0 / constrained_intra=0 / bframes=3 / b_pyramid=2 / b_adapt=2 / b_bias=0 / direct=3 / weightb=1 / open_gop=0 / weightp=2 / keyint=240 / keyint_min=24 / scenecut=40 / intra_refresh=0 / rc_lookahead=60 / rc=abr / mbtree=1 / bitrate=3500 / ratetol=1.0 / qcomp=0.60 / qpmin=0 / qpmax=69 / qpstep=4 / vbv_maxrate=62500 / vbv_bufsize=78125 / nal_hrd=none / filler=0 / ip_ratio=1.40 / aq=1:1.00
    Default                     : Yes
    Forced                      : Yes
    Color range                 : Limited
    Color primaries             : BT.709
    Transfer characteristics    : BT.709
    Matrix coefficients         : BT.709

    Audio #1
    ID                          : 2
    Format                      : AC-3
    Format/Info                 : Audio Coding 3
    Commercial name             : Dolby Digital
    Codec ID                    : A_AC3
    Duration                    : 2 h 30 min
    Bit rate mode               : Constant
    Bit rate                    : 640 kb/s
    Channel(s)                  : 6 channels
    Channel layout              : L R C LFE Ls Rs
    Sampling rate               : 48.0 kHz
    Frame rate                  : 31.250 FPS (1536 SPF)
    Compression mode            : Lossy
    Delay relative to video     : -5 ms
    Stream size                 : 690 MiB (14%)
    Title                       : Español Latino AC3 [CinemaniaHDD]
    Language                    : Spanish
    Service kind                : Complete Main
    Default                     : Yes
    Forced                      : Yes

    Audio #2
    ID                          : 3
    Format                      : AC-3
    Format/Info                 : Audio Coding 3
    Commercial name             : Dolby Digital
    Codec ID                    : A_AC3
    Duration                    : 2 h 30 min
    Bit rate mode               : Constant
    Bit rate                    : 448 kb/s
    Channel(s)                  : 6 channels
    Channel layout              : L R C LFE Ls Rs
    Sampling rate               : 48.0 kHz
    Frame rate                  : 31.250 FPS (1536 SPF)
    Compression mode            : Lossy
    Delay relative to video     : -5 ms
    Stream size                 : 483 MiB (10%)
    Title                       : Ingles [CinemaniaHDD]
    Language                    : English
    Service kind                : Complete Main
    Default                     : No
    Forced                      : No

    Text #1
    ID                          : 4
    Format                      : UTF-8
    Codec ID                    : S_TEXT/UTF8
    Codec ID/Info               : UTF-8 Plain Text
    Duration                    : 2 h 29 min
    Bit rate                    : 0 b/s
    Count of elements           : 22
    Stream size                 : 457 Bytes (0%)
    Title                       : Forzados-SRT [CinemaniaHDD]
    Language                    : Spanish
    Default                     : Yes
    Forced                      : Yes

    Text #2
    ID                          : 5
    Format                      : UTF-8
    Codec ID                    : S_TEXT/UTF8
    Codec ID/Info               : UTF-8 Plain Text
    Duration                    : 2 h 29 min
    Bit rate                    : 48 b/s
    Count of elements           : 1802
    Stream size                 : 53.2 KiB (0%)
    Title                       : Español-SRT [CinemaniaHDD]
    Language                    : Spanish
    Default                     : No
    Forced                      : No

    Menu
    00:00:00.000                : Chapter 01
    00:10:46.354                : Chapter 02
    00:15:51.951                : Chapter 03
    00:20:52.251                : Chapter 04
    00:31:55.664                : Chapter 05
    00:40:15.580                : Chapter 06
    00:45:29.769                : Chapter 07
    00:55:09.640                : Chapter 08
    01:02:52.644                : Chapter 09
    01:10:19.674                : Chapter 10
    01:15:58.220                : Chapter 11
    01:23:04.354                : Chapter 12
    01:29:21.147                : Chapter 13
    01:36:14.185                : Chapter 14
    01:45:57.434                : Chapter 15
    01:53:04.778                : Chapter 16
    02:02:19.666                : Chapter 17
    02:10:42.877                : Chapter 18
    02:16:20.714                : Chapter 19
    02:23:49.913                : Chapter 20

  • Peso: 4.80 GiB

Sinopsis

Descargar Los Fabelman (2022) HD 1080p Latino. Al crecer en la era de Arizona posterior a la Segunda Guerra Mundial, un niño llamado Sammy Fabelman descubre un secreto familiar devastador y explora cómo el poder de las películas puede ayudarlo a ver la verdad. Película semiautobiográfica sobre la infancia y juventud de Steven Spielberg.

Ficha técnica

Video trailer de la película

Enlaces de descarga

Rip de Bluray

Descargar Los Fabelman (2022) HD 1080p Latino




Aportes de DPeliculasHDmega la pass es:dpeliculashdmega.org Aportes de CinemaniaHD la pass es:cinemaniahdd.com Aportes recientes:cinemaniahdd.net
Guardado en : Drama , HD 1080p

Películas relacionadas

  • Cómplices del engaño (2024) HD 1080p Latino

    Cómplices del engaño (2024) HD 1080p Latino

    2024
    Cómplices del engaño (2024) HD 1080p Latino

    1h 56m 2024

    Descargar Cómplices del engaño (2024) HD 1080p Latino. Gary Johnson es el asesino profesional más...

    Director: T.J. Larson

    Género: Comedia

    Actores: Tre Styles

  • La melodía del diablo (2023) HD 1080p Latino

    La melodía del diablo (2023) HD 1080p Latino

    2023
    La melodía del diablo (2023) HD 1080p Latino

    1h 35m 2023

    Descargar La melodía del diablo (2023) HD 1080p Latino. Una joven compositora se encuentra frente a...

    Director: Erlingur Thoroddsen

    Género: HD 1080p

    Actores: Salomé Chandler

  • Tarot (2024) 1080p Latino-CMHDD

    Tarot (2024) 1080p Latino-CMHDD

    2024
    Tarot (2024) 1080p Latino-CMHDD

    1h 32m 2024

    Descargar Tarot (2024) 1080p Latino-CMHDD. Un grupo de amigos de la universidad comienzan a morir de...

    Director: Spenser Cohen

    Género: HD 1080p

    Actores: Wolfgang Novogratz

descargar Los Fabelman (2022) HD 1080p Latino 1080p 1080p gratis, Los Fabelman (2022) HD 1080p Latino 1080p mega 1 link, Los Fabelman (2022) HD 1080p Latino 1080p pelicula completa, descargar Los Fabelman (2022) HD 1080p Latino 1080p gratis en mega.

Los Fabelman (2022) HD 1080p Latino pelicula full hd, Los Fabelman (2022) HD 1080p Latino mega latino, Los Fabelman (2022) HD 1080p Latino 4k latino, Los Fabelman (2022) HD 1080p Latino pelicula completa, Los Fabelman (2022) HD 1080p Latino descargar gratis, descargar Los Fabelman (2022) HD 1080p Latino pelicula latino, Los Fabelman (2022) HD 1080p Latino 1 link mega, Los Fabelman (2022) HD 1080p Latino 1 link google drive, Los Fabelman (2022) HD 1080p Latino hd 1080p latino.
Comentarios 0