Los Croods: Una nueva era (2020) WEBDL 1080p Latino

213 vistas
1 estrella2 estrellas3 estrellas4 estrellas5 estrellas (Ninguna valoración todavía)
Cargando...

Información de Los Croods: Una nueva era (2020) WEBDL 1080p Latino

Datos de la película

  • Calidad: WEBDL
  • Audio: Español Latino AC3 2.0 iTunes - Ingles AC3 5.1 iTunes
  • Subtitulos: Español Latino SRT
  • Resolución: 1920x1080p
  • Formato: MKV
  • Codec: H.264
  • Encoder: EVO
  • Mediainfo: Clic para Mostrar Datos Ver
  • The.Croods.A.New.Age.2020.1080p.WEB-DL.1080p.Latino.mkv
    Format                      : Matroska
    Format version              : Version 4
    File size                   : 4.24 GiB
    Duration                    : 1 h 35 min
    Overall bit rate            : 6 382 kb/s
    Encoded date                : UTC 2020-12-17 17:49:50
    Writing application         : mkvmerge v51.0.0 ('I Wish') 64-bit
    Writing library             : libebml v1.4.0 + libmatroska v1.6.2

    Video
    ID                          : 1
    Format                      : AVC
    Format/Info                 : Advanced Video Codec
    Format profile              : High@L4
    Format settings             : CABAC / 2 Ref Frames
    Format settings, CABAC      : Yes
    Format settings, Reference  : 2 frames
    Codec ID                    : V_MPEG4/ISO/AVC
    Duration                    : 1 h 35 min
    Bit rate                    : 5 739 kb/s
    Width                       : 1 920 pixels
    Height                      : 1 080 pixels
    Display aspect ratio        : 16:9
    Frame rate mode             : Constant
    Frame rate                  : 23.976 (24000/1001) FPS
    Color space                 : YUV
    Chroma subsampling          : 4:2:0
    Bit depth                   : 8 bits
    Scan type                   : Progressive
    Bits/(Pixel*Frame)          : 0.115
    Stream size                 : 3.82 GiB (90%)
    Writing library             : x264 core 155 r2901 7d0ff22
    Default                     : Yes
    Forced                      : No
    Color range                 : Limited
    Color primaries             : BT.709
    Transfer characteristics    : BT.709
    Matrix coefficients         : BT.709

    Audio #1
    ID                          : 2
    Format                      : AC-3
    Format/Info                 : Audio Coding 3
    Commercial name             : Dolby Digital
    Codec ID                    : A_AC3
    Duration                    : 1 h 35 min
    Bit rate mode               : Constant
    Bit rate                    : 256 kb/s
    Channel(s)                  : 2 channels
    Channel layout              : L R
    Sampling rate               : 44.1 kHz
    Frame rate                  : 28.711 FPS (1536 SPF)
    Compression mode            : Lossy
    Stream size                 : 174 MiB (4%)
    Language                    : Spanish
    Service kind                : Complete Main
    Default                     : No
    Forced                      : No

    Audio #2
    ID                          : 3
    Format                      : AC-3
    Format/Info                 : Audio Coding 3
    Commercial name             : Dolby Digital
    Codec ID                    : A_AC3
    Duration                    : 1 h 35 min
    Bit rate mode               : Constant
    Bit rate                    : 384 kb/s
    Channel(s)                  : 6 channels
    Channel layout              : L R C LFE Ls Rs
    Sampling rate               : 48.0 kHz
    Frame rate                  : 31.250 FPS (1536 SPF)
    Compression mode            : Lossy
    Stream size                 : 262 MiB (6%)
    Language                    : English
    Service kind                : Complete Main
    Default                     : Yes
    Forced                      : No

    Text #1
    ID                          : 4
    Format                      : UTF-8
    Codec ID                    : S_TEXT/UTF8
    Codec ID/Info               : UTF-8 Plain Text
    Duration                    : 25 min 11 s
    Bit rate                    : 0 b/s
    Count of elements           : 7
    Stream size                 : 156 Bytes (0%)
    Language                    : Spanish
    Default                     : Yes
    Forced                      : No

    Text #2
    ID                          : 5
    Format                      : UTF-8
    Codec ID                    : S_TEXT/UTF8
    Codec ID/Info               : UTF-8 Plain Text
    Duration                    : 1 h 34 min
    Bit rate                    : 64 b/s
    Count of elements           : 1527
    Stream size                 : 44.2 KiB (0%)
    Language                    : Spanish
    Default                     : No
    Forced                      : No

  • Peso: 4.24 GiB

Sinopsis

Después de salir de su cueva, los Croods se encuentran con su mayor amenaza desde que se fueron: otra familia llamada Betterman, quienes afirman y demuestran ser mejores y evolucionados. Grug empieza a sospechar de los padres de Betterman, Phil y Hope, ya que planean en secreto separar a su hija Eep con su amado novio Guy para asegurarse de que su hija Dawn tenga un compañero amoroso e inteligente que la proteja.

Ficha técnica

Video trailer de la película

Enlaces de descarga

Rip de Bluray

Descargar Los Croods: Una nueva era (2020) WEBDL 1080p Latino




Aportes de DPeliculasHDmega la pass es:dpeliculashdmega.org Aportes de CinemaniaHD la pass es:cinemaniahdd.com
Guardado en : Aventura , Animación , Familia , Fantasía

Películas relacionadas

  • Howard the Duck (1986) REMUX 1080p Latino – CMHDD

    Howard the Duck (1986) REMUX 1080p Latino – CMHDD

    1986
    Howard the Duck (1986) REMUX 1080p Latino – CMHDD

    0.0 1h 51m 1986

    Desde un lejano planeta, y debido a un error de un laboratorio espacial, llega a La Tierra teletransportado...

    Director: Willard Huyck

    Género: Ciencia ficción

    Actores: Wood Moy

  • Space Jam (1996) REMUX 1080p Latino – CMHDD

    Space Jam (1996) REMUX 1080p Latino – CMHDD

    1996
    Space Jam (1996) REMUX 1080p Latino – CMHDD

    0.0 1h 27m 1996

    Bugs Bunny y su equipo desafían a los Nerdlucks (un grupo de pequeños extraterrestres) a un partido...

    Director: Pamela Cederquist

    Género: Animación

    Actores: William G. Schilling

  • La Purga Por Siempre (2021) WebDL 1080p Latino

    La Purga Por Siempre (2021) WebDL 1080p Latino

    2021
    La Purga Por Siempre (2021) WebDL 1080p Latino

    0.0 1h 43m 2021

    Descargar La Purga Por Siempre (2021) WebDL 1080p Latino. Para los miembros de un movimiento clandestino,...

    Director: Vickie M. Hsieh

    Género: Acción

    Actores: Zahn McClarnon

Los Croods: Una nueva era (2020) WEBDL 1080p Latino pelicula full hd, Los Croods: Una nueva era (2020) WEBDL 1080p Latino mega latino, Los Croods: Una nueva era (2020) WEBDL 1080p Latino 4k latino, Los Croods: Una nueva era (2020) WEBDL 1080p Latino pelicula completa, Los Croods: Una nueva era (2020) WEBDL 1080p Latino descargar gratis, descargar Los Croods: Una nueva era (2020) WEBDL 1080p Latino pelicula latino, Los Croods: Una nueva era (2020) WEBDL 1080p Latino 1 link mega, Los Croods: Una nueva era (2020) WEBDL 1080p Latino 1 link google drive, Los Croods: Una nueva era (2020) WEBDL 1080p Latino hd 1080p latino.
Comentarios 0