Los Croods 2: Una nueva era (2020) REMUX 1080p Latino

77 vistas
1 estrella2 estrellas3 estrellas4 estrellas5 estrellas (1 votos, promedio: 5,00 de 5)
Cargando...

Información de Los Croods 2: Una nueva era (2020) REMUX 1080p Latino

Datos de la película

  • Calidad: Full 1080p
  • Audio: Se especifica abajo de la Sinopsis
  • Subtitulos: Español Latino PGS - Ingles PGS
  • Resolución: 1920x1080p
  • Formato: MKV
  • Codec: H.264
  • Encoder: Melkor
  • Mediainfo: Clic para Mostrar Datos Ver
  • Los Croods 2 (2020) REMUX 1080p Latino.mkv
    Format                      : Matroska
    Format version              : Version 4
    File size                   : 24.1 GiB
    Duration                    : 1 h 35 min
    Overall bit rate mode       : Variable
    Overall bit rate            : 36.2 Mb/s
    Movie name                  : The Croods: A New Age (2020) CinemaniaHDD.Net
    Encoded date                : UTC 2021-02-14 02:22:29
    Writing application         : mkvmerge v51.0.0 ('I Wish') 64-bit
    Writing library             : libebml v1.4.0 + libmatroska v1.6.2
    Attachments                 : CINEMANIAHD.png

    Video
    ID                          : 1
    Format                      : AVC
    Format/Info                 : Advanced Video Codec
    Format profile              : High@L4.1
    Format settings             : CABAC / 2 Ref Frames
    Format settings, CABAC      : Yes
    Format settings, Reference  : 2 frames
    Format settings, GOP        : M=1, N=10
    Codec ID                    : V_MPEG4/ISO/AVC
    Duration                    : 1 h 35 min
    Bit rate mode               : Variable
    Bit rate                    : 31.1 Mb/s
    Width                       : 1 920 pixels
    Height                      : 1 080 pixels
    Display aspect ratio        : 16:9
    Frame rate mode             : Constant
    Frame rate                  : 23.976 (24000/1001) FPS
    Color space                 : YUV
    Chroma subsampling          : 4:2:0
    Bit depth                   : 8 bits
    Scan type                   : Progressive
    Bits/(Pixel*Frame)          : 0.625
    Stream size                 : 20.7 GiB (86%)
    Title                       : REMUX HD1080p [CinemaniaHDD]
    Default                     : Yes
    Forced                      : Yes

    Audio #1
    ID                          : 2
    Format                      : E-AC-3
    Format/Info                 : Enhanced AC-3
    Commercial name             : Dolby Digital Plus
    Format profile              : Blu-ray Disc
    Codec ID                    : A_EAC3
    Duration                    : 1 h 35 min
    Bit rate mode               : Constant
    Bit rate                    : 768 kb/s
    Channel(s)                  : 8 channels
    Channel layout              : L R C LFE Ls Rs Lb Rb
    Sampling rate               : 48.0 kHz
    Frame rate                  : 31.250 FPS (1536 SPF)
    Compression mode            : Lossy
    Stream size                 : 523 MiB (2%)
    Title                       : Español Latino [CinemaniaHDD]
    Language                    : Spanish
    Service kind                : Complete Main
    Default                     : Yes
    Forced                      : Yes

    Audio #2
    ID                          : 3
    Format                      : MLP FBA 16-ch
    Format/Info                 : Meridian Lossless Packing FBA with 16-channel presentation
    Commercial name             : Dolby TrueHD with Dolby Atmos
    Codec ID                    : A_TRUEHD
    Duration                    : 1 h 35 min
    Bit rate mode               : Variable
    Bit rate                    : 3 095 kb/s
    Maximum bit rate            : 4 263 kb/s
    Channel(s)                  : 8 channels
    Channel layout              : L R C LFE Ls Rs Lb Rb
    Sampling rate               : 48.0 kHz
    Frame rate                  : 1 200.000 FPS (40 SPF)
    Compression mode            : Lossless
    Stream size                 : 2.06 GiB (9%)
    Title                       : Ingles [CinemaniaHDD]
    Language                    : English
    Default                     : No
    Forced                      : No
    Number of dynamic objects   : 11
    Bed channel count           : 1 channel
    Bed channel configuration   : LFE

    Audio #3
    ID                          : 4
    Format                      : AC-3
    Format/Info                 : Audio Coding 3
    Commercial name             : Dolby Digital
    Codec ID                    : A_AC3
    Duration                    : 1 h 35 min
    Bit rate mode               : Constant
    Bit rate                    : 640 kb/s
    Channel(s)                  : 6 channels
    Channel layout              : L R C LFE Ls Rs
    Sampling rate               : 48.0 kHz
    Frame rate                  : 31.250 FPS (1536 SPF)
    Compression mode            : Lossy
    Stream size                 : 436 MiB (2%)
    Title                       : Español Latino AC3 [CinemaniaHDD]
    Language                    : Spanish
    Service kind                : Complete Main
    Default                     : No
    Forced                      : No

    Audio #4
    ID                          : 5
    Format                      : AC-3
    Format/Info                 : Audio Coding 3
    Commercial name             : Dolby Digital
    Codec ID                    : A_AC3
    Duration                    : 1 h 35 min
    Bit rate mode               : Constant
    Bit rate                    : 448 kb/s
    Channel(s)                  : 6 channels
    Channel layout              : L R C LFE Ls Rs
    Sampling rate               : 48.0 kHz
    Frame rate                  : 31.250 FPS (1536 SPF)
    Compression mode            : Lossy
    Stream size                 : 305 MiB (1%)
    Title                       : Ingles AC3 [CinemaniaHDD]
    Language                    : English
    Service kind                : Complete Main
    Default                     : No
    Forced                      : No

    Text #1
    ID                          : 6
    Format                      : PGS
    Muxing mode                 : zlib
    Codec ID                    : S_HDMV/PGS
    Codec ID/Info               : Picture based subtitle format used on BDs/HD-DVDs
    Duration                    : 25 min 12 s
    Bit rate                    : 685 b/s
    Count of elements           : 16
    Stream size                 : 127 KiB (0%)
    Title                       : Forzados-PGS [CinemaniaHDD]
    Language                    : Spanish
    Default                     : No
    Forced                      : No

    Text #2
    ID                          : 7
    Format                      : PGS
    Muxing mode                 : zlib
    Codec ID                    : S_HDMV/PGS
    Codec ID/Info               : Picture based subtitle format used on BDs/HD-DVDs
    Duration                    : 1 h 34 min
    Bit rate                    : 43.6 kb/s
    Count of elements           : 3056
    Stream size                 : 29.4 MiB (0%)
    Title                       : Español-PGS [CinemaniaHDD]
    Language                    : Spanish
    Default                     : No
    Forced                      : No

    Text #3
    ID                          : 8
    Format                      : PGS
    Muxing mode                 : zlib
    Codec ID                    : S_HDMV/PGS
    Codec ID/Info               : Picture based subtitle format used on BDs/HD-DVDs
    Duration                    : 1 h 34 min
    Bit rate                    : 56.4 kb/s
    Count of elements           : 3996
    Stream size                 : 38.1 MiB (0%)
    Title                       : Ingles-PGS [CinemaniaHDD]
    Language                    : English
    Default                     : No
    Forced                      : No

    Text #4
    ID                          : 9
    Format                      : UTF-8
    Codec ID                    : S_TEXT/UTF8
    Codec ID/Info               : UTF-8 Plain Text
    Duration                    : 1 h 19 min
    Bit rate                    : 0 b/s
    Count of elements           : 7
    Stream size                 : 162 Bytes (0%)
    Title                       : Forzados-SRT [CinemaniaHDD]
    Language                    : Spanish
    Default                     : Yes
    Forced                      : Yes

    Text #5
    ID                          : 10
    Format                      : UTF-8
    Codec ID                    : S_TEXT/UTF8
    Codec ID/Info               : UTF-8 Plain Text
    Duration                    : 1 h 26 min
    Bit rate                    : 69 b/s
    Count of elements           : 1521
    Stream size                 : 44.4 KiB (0%)
    Title                       : Español-SRT [CinemaniaHDD]
    Language                    : Spanish
    Default                     : No
    Forced                      : No

    Menu
    00:00:00.000                : en:Chapter 1
    00:06:36.563                : en:Chapter 2
    00:11:17.760                : en:Chapter 3
    00:18:01.289                : en:Chapter 4
    00:21:05.389                : en:Chapter 5
    00:25:45.085                : en:Chapter 6
    00:29:01.990                : en:Chapter 7
    00:34:01.706                : en:Chapter 8
    00:37:10.603                : en:Chapter 9
    00:43:43.037                : en:Chapter 10
    00:48:33.786                : en:Chapter 11
    00:52:16.675                : en:Chapter 12
    00:55:48.095                : en:Chapter 13
    00:59:50.128                : en:Chapter 14
    01:05:28.758                : en:Chapter 15
    01:09:06.476                : en:Chapter 16
    01:15:03.499                : en:Chapter 17
    01:21:30.719                : en:Chapter 18
    01:25:12.691                : en:Chapter 19
    01:27:39.129                : en:Chapter 20

  • Peso: 24.1 GiB

Sinopsis

Descargar Los Croods 2: Una nueva era (2020) REMUX 1080p Latino. Después de salir de su cueva, los Croods se encuentran con su mayor amenaza desde que se fueron: otra familia llamada Betterman, quienes afirman y demuestran ser mejores y evolucionados. Grug empieza a sospechar de los padres de Betterman, Phil y Hope, ya que planean en secreto separar a su hija Eep con su amado novio Guy para asegurarse de que su hija Dawn tenga un compañero amoroso e inteligente que la proteja.

Español latino EAC3 7.1 & AC3 5.1 – Ingles TrueHD 7.1 & AC3 5.1

Ficha técnica

Video trailer de la película

Enlaces de descarga

Rip de Bluray

Descargar Los Croods 2: Una nueva era (2020) REMUX 1080p Latino




Aportes de DPeliculasHDmega la pass es:dpeliculashdmega.org Aportes de CinemaniaHD la pass es:cinemaniahdd.com
Guardado en : Animación , Aventura , Familia , Fantasía , Remux

Películas relacionadas

  • Horizon Line (2020) REMUX 1080p Latino

    Horizon Line (2020) REMUX 1080p Latino

    2020
    Horizon Line (2020) REMUX 1080p Latino

    5.0 1h 31m 2020

    Descargar Horizon Line (2020) REMUX 1080p Latino. Una pareja que viaja en un avión pequeño para asistir...

    Director: Mikael Marcimain

    Género: Remux

    Actores: Pearl Mackie

  • Sola (2020) REMUX 1080p Latino

    Sola (2020) REMUX 1080p Latino

    2020
    Sola (2020) REMUX 1080p Latino

    5.0 1h 40m 2020

    Descargar Sola (2020) REMUX 1080p Latino. Una mujer viuda que viaja sola es secuestrada por un asesino...

    Director: John Hyams

    Género: Drama

    Actores: Shelly Lipkin

  • La Red De Corrupcion (2019) REMUX 1080p Latino

    La Red De Corrupcion (2019) REMUX 1080p Latino

    2019
    La Red De Corrupcion (2019) REMUX 1080p Latino

    5.0 1h 45m 2019

    Descargar La Red De Corrupcion (2019) REMUX 1080p Latino. Con los Juegos Olímpicos de 2012 de Londres...

    Director: Ron Scalpello

    Género: Crimen

    Actores: Timothy Spall

  • Madame Curie (2019) REMUX 1080p Latino

    Madame Curie (2019) REMUX 1080p Latino

    2019
    Madame Curie (2019) REMUX 1080p Latino

    0.0 1h 55m 2019

    Descargar Madame Curie (2019) REMUX 1080p Latino. Cuenta la historia de la ganadora del Premio Nobel...

    Director: Phoebe Billington

    Género: Drama

    Actores: Tim Woodward

Los Croods 2: Una nueva era (2020) REMUX 1080p Latino pelicula full hd, Los Croods 2: Una nueva era (2020) REMUX 1080p Latino mega latino, Los Croods 2: Una nueva era (2020) REMUX 1080p Latino 4k latino, Los Croods 2: Una nueva era (2020) REMUX 1080p Latino pelicula completa, Los Croods 2: Una nueva era (2020) REMUX 1080p Latino descargar gratis, descargar Los Croods 2: Una nueva era (2020) REMUX 1080p Latino pelicula latino, Los Croods 2: Una nueva era (2020) REMUX 1080p Latino 1 link mega, Los Croods 2: Una nueva era (2020) REMUX 1080p Latino 1 link google drive, Los Croods 2: Una nueva era (2020) REMUX 1080p Latino hd 1080p latino.
Comentarios 0