×

¿Problemas para descargar con Mozilla, EDGE? Deshabilita la opción "Abrir vinculos en una pestaña nueva" tal como lo muestra ésta imagen.

Los Croods 2: Una Nueva Era (2020) 4K UHD HDR Web Latino

580 vistas

Información de Los Croods 2: Una Nueva Era (2020) 4K UHD HDR Web Latino

Datos de la película

  • Calidad: WEBDL
  • Audio: Español Latino AC3 2.0 WEB-DL - Ingles AC3 5.1 WEB-DL
  • Subtitulos: Español Latino SRT- FORZADOS SRT
  • Resolución: 3840x2160p
  • Formato: MKV
  • Codec: HEVC
  • Encoder: Melkor
  • Mediainfo: Clic para Mostrar Datos Ver
  • Los Croods 2 Una Nueva Era (2020) UHD HDR WEB Latino.mkv
    Format                      : Matroska
    Format version              : Version 4
    File size                   : 10.5 GiB
    Duration                    : 1 h 35 min
    Overall bit rate            : 15.8 Mb/s
    Movie name                  : The Croods - A New Age (2020) CinemaniaHDD.Net
    Encoded date                : UTC 2020-12-18 02:51:17
    Writing application         : mkvmerge v51.0.0 ('I Wish') 64-bit
    Writing library             : libebml v1.4.0 + libmatroska v1.6.2
    Attachments                 : CINEMANIAHD.png

    Video
    ID                          : 1
    Format                      : HEVC
    Format/Info                 : High Efficiency Video Coding
    Format profile              : Main 10@L5@Main
    Codec ID                    : V_MPEGH/ISO/HEVC
    Duration                    : 1 h 35 min
    Bit rate                    : 14.9 Mb/s
    Width                       : 3 840 pixels
    Height                      : 2 160 pixels
    Display aspect ratio        : 16:9
    Frame rate mode             : Constant
    Frame rate                  : 23.976 (24000/1001) FPS
    Color space                 : YUV
    Chroma subsampling          : 4:2:0 (Type 2)
    Bit depth                   : 10 bits
    Bits/(Pixel*Frame)          : 0.075
    Stream size                 : 9.90 GiB (94%)
    Title                       : Web 2160p HDR [CinemaniaHDD]
    Default                     : Yes
    Forced                      : No
    Color range                 : Limited
    Color primaries             : BT.2020
    Transfer characteristics    : PQ
    Matrix coefficients         : BT.2020 non-constant
    Maximum Content Light Level : 1000 cd/m2
    Maximum Frame-Average Light : 347 cd/m2

    Audio #1
    ID                          : 2
    Format                      : AC-3
    Format/Info                 : Audio Coding 3
    Commercial name             : Dolby Digital
    Codec ID                    : A_AC3
    Duration                    : 1 h 35 min
    Bit rate mode               : Constant
    Bit rate                    : 256 kb/s
    Channel(s)                  : 2 channels
    Channel layout              : L R
    Sampling rate               : 48.0 kHz
    Frame rate                  : 31.250 FPS (1536 SPF)
    Compression mode            : Lossy
    Stream size                 : 174 MiB (2%)
    Title                       : Español Latino [CinemaniaHDD]
    Language                    : Spanish
    Service kind                : Complete Main
    Default                     : Yes
    Forced                      : No

    Audio #2
    ID                          : 3
    Format                      : E-AC-3
    Format/Info                 : Enhanced AC-3
    Commercial name             : Dolby Digital Plus
    Codec ID                    : A_EAC3
    Duration                    : 1 h 35 min
    Bit rate mode               : Constant
    Bit rate                    : 640 kb/s
    Channel(s)                  : 6 channels
    Channel layout              : L R C LFE Ls Rs
    Sampling rate               : 48.0 kHz
    Frame rate                  : 31.250 FPS (1536 SPF)
    Compression mode            : Lossy
    Stream size                 : 436 MiB (4%)
    Title                       : Ingles [CinemaniaHDD]
    Language                    : English
    Service kind                : Complete Main
    Default                     : No
    Forced                      : No

    Text #1
    ID                          : 4
    Format                      : UTF-8
    Codec ID                    : S_TEXT/UTF8
    Codec ID/Info               : UTF-8 Plain Text
    Duration                    : 25 min 11 s
    Bit rate                    : 0 b/s
    Count of elements           : 7
    Stream size                 : 156 Bytes (0%)
    Title                       : Forzados-SRT [CinemaniaHDD]
    Language                    : Spanish
    Default                     : Yes
    Forced                      : No

    Text #2
    ID                          : 5
    Format                      : UTF-8
    Codec ID                    : S_TEXT/UTF8
    Codec ID/Info               : UTF-8 Plain Text
    Duration                    : 1 h 34 min
    Bit rate                    : 64 b/s
    Count of elements           : 1527
    Stream size                 : 44.2 KiB (0%)
    Title                       : Español-SRT [CinemaniaHDD]
    Language                    : Spanish
    Default                     : No
    Forced                      : No

    Text #3
    ID                          : 6
    Format                      : UTF-8
    Codec ID                    : S_TEXT/UTF8
    Codec ID/Info               : UTF-8 Plain Text
    Duration                    : 1 h 35 min
    Bit rate                    : 88 b/s
    Count of elements           : 2402
    Stream size                 : 61.9 KiB (0%)
    Title                       : Ingles-SRT [CinemaniaHDD]
    Language                    : English
    Default                     : No
    Forced                      : No

  • Peso: 10.5 GiB

Sinopsis

Descargar Los Croods 2: Una Nueva Era (2020) 4K UHD HDR Web Latino. Después de salir de su cueva, los Croods se encuentran con su mayor amenaza desde que se fueron: otra familia llamada Betterman, quienes afirman y demuestran ser mejores y evolucionados. Grug empieza a sospechar de los padres de Betterman, Phil y Hope, ya que planean en secreto separar a su hija Eep con su amado novio Guy para asegurarse de que su hija Dawn tenga un compañero amoroso e inteligente que la proteja.

Ficha técnica

Video trailer de la película

Enlaces de descarga

Rip de Bluray

Descargar Los Croods 2: Una Nueva Era (2020) 4K UHD HDR Web Latino




Aportes de DPeliculasHDmega la pass es:dpeliculashdmega.org Aportes de CinemaniaHD la pass es:cinemaniahdd.com

Películas relacionadas

descargar Los Croods 2: Una Nueva Era (2020) 4K UHD HDR Web Latino WEBDL 1080p gratis, Los Croods 2: Una Nueva Era (2020) 4K UHD HDR Web Latino WEBDL mega 1 link, Los Croods 2: Una Nueva Era (2020) 4K UHD HDR Web Latino WEBDL pelicula completa, descargar Los Croods 2: Una Nueva Era (2020) 4K UHD HDR Web Latino WEBDL gratis en mega.

Los Croods 2: Una Nueva Era (2020) 4K UHD HDR Web Latino pelicula full hd, Los Croods 2: Una Nueva Era (2020) 4K UHD HDR Web Latino mega latino, Los Croods 2: Una Nueva Era (2020) 4K UHD HDR Web Latino 4k latino, Los Croods 2: Una Nueva Era (2020) 4K UHD HDR Web Latino pelicula completa, Los Croods 2: Una Nueva Era (2020) 4K UHD HDR Web Latino descargar gratis, descargar Los Croods 2: Una Nueva Era (2020) 4K UHD HDR Web Latino pelicula latino, Los Croods 2: Una Nueva Era (2020) 4K UHD HDR Web Latino 1 link mega, Los Croods 2: Una Nueva Era (2020) 4K UHD HDR Web Latino 1 link google drive, Los Croods 2: Una Nueva Era (2020) 4K UHD HDR Web Latino hd 1080p latino.
Comentarios 0