Los blancos no saben saltar (1992) Full 1080p Latino

1.121 vistas
1 estrella2 estrellas3 estrellas4 estrellas5 estrellas (4 votos, promedio: 5,00 de 5)
Cargando…

Información de Los blancos no saben saltar (1992) Full 1080p Latino

Datos de la película

  • Calidad: Full 1080p
  • Audio: Español Latino AC3 2.0 BLURAY - Ingles DTS 5.1 BLURAY
  • Subtitulos: Español Latino PGS - Ingles PGS
  • Resolución: 1920x1080p
  • Formato: MKV
  • Codec: H.264
  • Encoder: Dracarys
  • Mediainfo: Clic para Mostrar Datos Ver
  • Format                                   : Matroska
    Format version                           : Version 4 / Version 2
    File size                                : 7.59 GiB
    Duration                                 : 1 h 56 min
    Overall bit rate                         : 9 299 kb/s
    Movie name                               : CinemaniaHDD.net
    Encoded date                             : UTC 2018-08-29 22:35:16 / UTC 2018-08-22T19:50:01Z
    Writing application                      : mkvmerge v15.0.0 ('Duel with the Devil') 64-bit
    Writing library                          : libebml v1.3.5 + libmatroska v1.4.5 / Lavf57.7.2

    Video
    ID                                       : 1
    Format                                   : AVC
    Format/Info                              : Advanced Video Codec
    Format profile                           : High@L4.1
    Format settings                          : CABAC / 4 Ref Frames
    Format settings, CABAC                   : Yes
    Format settings, RefFrames               : 4 frames
    Codec ID                                 : V_MPEG4/ISO/AVC
    Duration                                 : 1 h 56 min
    Bit rate                                 : 7 381 kb/s
    Width                                    : 1 920 pixels
    Height                                   : 1 080 pixels
    Display aspect ratio                     : 16:9
    Frame rate mode                          : Constant
    Frame rate                               : 23.976 (24000/1001) FPS
    Color space                              : YUV
    Chroma subsampling                       : 4:2:0
    Bit depth                                : 8 bits
    Scan type                                : Progressive
    Bits/(Pixel*Frame)                       : 0.148
    Stream size                              : 6.02 GiB (79%)
    Title                                    : Los blancos no saben saltar (1992) Full 1080p Latino
    Writing library                          : x264 core 148 r2708 86b7198
    Encoding settings                        : cabac=1 / ref=4 / deblock=1:0:0 / analyse=0x3:0x133 / me=esa / subme=10 / psy=1 / psy_rd=1.00:0.00 / mixed_ref=1 / me_range=24 / chroma_me=1 / trellis=2 / 8x8dct=1 / cqm=0 / deadzone=21,11 / fast_pskip=1 / chroma_qp_offset=-2 / threads=34 / lookahead_threads=5 / sliced_threads=0 / nr=0 / decimate=1 / interlaced=0 / bluray_compat=0 / constrained_intra=0 / bframes=8 / b_pyramid=2 / b_adapt=2 / b_bias=0 / direct=3 / weightb=1 / open_gop=0 / weightp=2 / keyint=240 / keyint_min=24 / scenecut=40 / intra_refresh=0 / rc_lookahead=60 / rc=crf / mbtree=1 / crf=20.0 / qcomp=0.60 / qpmin=0 / qpmax=69 / qpstep=4 / vbv_maxrate=62500 / vbv_bufsize=78125 / crf_max=0.0 / nal_hrd=none / filler=0 / ip_ratio=1.40 / aq=1:1.00
    Language                                 : English
    Default                                  : Yes
    Forced                                   : No
    Color range                              : Limited
    Color primaries                          : BT.709
    Transfer characteristics                 : BT.709
    Matrix coefficients                      : BT.709
    Statistics Tags Issue                    : mkvmerge v15.0.0 ('Duel with the Devil') 64-bit 2018-08-29 22:35:16 / mkvmerge v15.0.0 ('Duel with the Devil') 64-bit 2018-08-29 22:35:16 / UTC 2018-08-22T19:50:01Z
    FromStats_BitRate                        : 7536552
    FromStats_Duration                       : 01:56:50.629000000
    FromStats_FrameCount                     : 168087
    FromStats_StreamSize                     : 6604497121

    Audio #1
    ID                                       : 2
    Format                                   : AC-3
    Format/Info                              : Audio Coding 3
    Mode                                     : Dolby Digital
    Format settings, Endianness              : Big
    Codec ID                                 : A_AC3
    Duration                                 : 1 h 56 min
    Bit rate mode                            : Constant
    Bit rate                                 : 224 kb/s
    Channel(s)                               : 2 channels
    Channel positions                        : Front: L R
    Sampling rate                            : 48.0 kHz
    Frame rate                               : 31.250 FPS (1536 SPF)
    Bit depth                                : 16 bits
    Compression mode                         : Lossy
    Stream size                              : 187 MiB (2%)
    Language                                 : Spanish
    Service kind                             : Complete Main
    Default                                  : Yes
    Forced                                   : No
    Statistics Tags Issue                    : mkvmerge v15.0.0 ('Duel with the Devil') 64-bit 2018-08-29 22:35:16 / mkvmerge v15.0.0 ('Duel with the Devil') 64-bit 2018-08-29 22:35:16 / UTC 2018-08-22T19:50:01Z
    FromStats_BitRate                        : 224000
    FromStats_Duration                       : 01:56:50.688000000
    FromStats_FrameCount                     : 219084
    FromStats_StreamSize                     : 196299264

    Audio #2
    ID                                       : 3
    Format                                   : DTS
    Format/Info                              : Digital Theater Systems
    Mode                                     : 16
    Format settings, Endianness              : Big
    Codec ID                                 : A_DTS
    Duration                                 : 1 h 56 min
    Bit rate mode                            : Constant
    Bit rate                                 : 1 509 kb/s
    Channel(s)                               : 6 channels
    Channel positions                        : Front: L C R, Side: L R, LFE
    Sampling rate                            : 48.0 kHz
    Frame rate                               : 93.750 FPS (512 SPF)
    Bit depth                                : 24 bits
    Compression mode                         : Lossy
    Stream size                              : 1.23 GiB (16%)
    Language                                 : English
    Default                                  : No
    Forced                                   : No
    Statistics Tags Issue                    : mkvmerge v15.0.0 ('Duel with the Devil') 64-bit 2018-08-29 22:35:16 / mkvmerge v15.0.0 ('Duel with the Devil') 64-bit 2018-08-29 22:35:16 / UTC 2018-08-22T19:50:01Z
    FromStats_BitRate                        : 1508999
    FromStats_Duration                       : 01:56:50.646000000
    FromStats_FrameCount                     : 657248
    FromStats_StreamSize                     : 1322382976

    Text #1
    ID                                       : 4
    Format                                   : PGS
    Muxing mode                              : zlib
    Codec ID                                 : S_HDMV/PGS
    Codec ID/Info                            : Picture based subtitle format used on BDs/HD-DVDs
    Language                                 : English
    Default                                  : No
    Forced                                   : No
    Statistics Tags Issue                    : mkvmerge v15.0.0 ('Duel with the Devil') 64-bit 2018-08-29 22:35:16 / mkvmerge v15.0.0 ('Duel with the Devil') 64-bit 2018-08-29 22:35:16 / UTC 2018-08-22T19:50:01Z
    FromStats_BitRate                        : 48159
    FromStats_Duration                       : 01:56:18.907000000
    FromStats_FrameCount                     : 5275
    FromStats_StreamSize                     : 42012479

    Text #2
    ID                                       : 5
    Format                                   : PGS
    Muxing mode                              : zlib
    Codec ID                                 : S_HDMV/PGS
    Codec ID/Info                            : Picture based subtitle format used on BDs/HD-DVDs
    Language                                 : Spanish
    Default                                  : No
    Forced                                   : No
    Statistics Tags Issue                    : mkvmerge v15.0.0 ('Duel with the Devil') 64-bit 2018-08-29 22:35:16 / mkvmerge v15.0.0 ('Duel with the Devil') 64-bit 2018-08-29 22:35:16 / UTC 2018-08-22T19:50:01Z
    FromStats_BitRate                        : 37922
    FromStats_Duration                       : 01:56:19.992000000
    FromStats_FrameCount                     : 3204
    FromStats_StreamSize                     : 33086968

    Menu
    00:00:00.000                             : :Chapter 1
    00:04:34.775                             : :Chapter 2
    00:08:59.789                             : :Chapter 3
    00:19:00.681                             : :Chapter 4
    00:24:25.464                             : :Chapter 5
    00:31:06.865                             : :Chapter 6
    00:36:15.006                             : :Chapter 7
    00:43:21.224                             : :Chapter 8
    00:50:48.212                             : :Chapter 9
    00:58:03.397                             : :Chapter 10
    01:04:54.682                             : :Chapter 11
    01:10:32.562                             : :Chapter 12
    01:14:12.198                             : :Chapter 13
    01:23:14.114                             : :Chapter 14
    01:28:26.718                             : :Chapter 15
    01:33:12.253                             : :Chapter 16
    01:36:36.124                             : :Chapter 17
    01:42:31.312                             : :Chapter 18
    01:47:32.780                             : :Chapter 19
    01:52:41.213                             : :Chapter 20

  • Peso: 7.59 GiB

Sinopsis

Billy y Sidney son dos amigos, uno blanco y otro negro, que se dedican a practicar el baloncesto callejero contra todo aquel que desee medir sus fuerzas con ellos. Como los dos se creen los mejores jugadores del mundo, su excesivo ego hace que se peleen entre ellos, con los contrarios y con todo aquel que no comparta su filosofía del juego.

Ficha técnica

Video trailer de la película

Enlaces de descarga

Rip de Bluray

Descargar Los blancos no saben saltar (1992) Full 1080p Latino




Aportes de DPeliculasHDmega la pass es:dpeliculashdmega.org Aportes de CinemaniaHD la pass es:cinemaniahdd.com

Películas relacionadas

  • Unbroken Path to Redemption (2018) 1080p Latino

    2018
    Unbroken Path to Redemption (2018) 1080p Latino

    0.0 1h 38m 2018

    Zamperini regresa a California donde se casó a regañadientes con Cynthia Applewhite mientras luchaba...

    Director: Harold Cronk

    Género: Drama

    Actores: Will Graham

  • Matar o morir (2018) 1080p Subtitulado

    2018
    Matar o morir (2018) 1080p Subtitulado

    5.0 1h 41m 2018

    Descargar Matar o morir [Peppermint] (2018) 1080p Subtitulado, Mega, Google Drive. LRiley North (Jennifer...

    Director: Pierre Morel

    Género: Acción

    Actores: YaYa Gosselin

  • Ni en tus sueños (2010) Full 1080p Latino

    2010
    Ni en tus sueños (2010) Full 1080p Latino

    0.0 1h 44m 2010

    Descargar Ni en tus sueños (2010) Full 1080p Latino, Mega, Google Drive. Kirk (Jay Baruchel, "Tropic...

    Director: Richard L. Fox

    Género: Comedia

    Actores: Yan Xi

  • Ni en tus sueños (2010) 1080p Latino

    2010
    Ni en tus sueños (2010) 1080p Latino

    0.0 1h 44m 2010

    Descargar Ni en tus sueños (2010) 1080p Latino, Mega, Google Drive. Kirk (Jay Baruchel, "Tropic Thunder")...

    Director: Richard L. Fox

    Género: Comedia

    Actores: Yan Xi

Comentarios 0